<?xml version="1.0" standalone="no"?>
<!DOCTYPE svg PUBLIC "-//W3C//DTD SVG 1.1//EN" "http://www.w3.org/Graphics/SVG/1.1/DTD/svg11.dtd" >
<svg xmlns="http://www.w3.org/2000/svg">
<metadata>Generated by IcoMoon</metadata>
<defs>
<font id="outline" horiz-adv-x="1024">
<font-face units-per-em="1024" ascent="960" descent="-64" />
<missing-glyph horiz-adv-x="1024" />
<glyph unicode="&#x20;" d="" horiz-adv-x="512" />
<glyph unicode="&#xe600;" d="M445.935 910.452c36.402 0 66.065-29.663 66.065-66.065s-29.663-66.065-66.065-66.065c-36.435 0-66.065 29.663-66.065 66.065s29.63 66.065 66.065 66.065zM445.935 943.484c-54.701 0-99.097-44.362-99.097-99.097s44.395-99.097 99.097-99.097c54.701 0 99.097 44.362 99.097 99.097s-44.395 99.097-99.097 99.097v0zM842.323 728.774h-792.774c-27.351 0-49.548-22.198-49.548-49.548 0-27.384 22.198-49.548 49.548-49.548h280.774v-262.111l-114.919-116.373 0.198-0.198c-8.687-8.919-14.105-21.108-14.105-34.552 0-26.228 20.447-47.5 46.245-49.218v0h165.161c27.351 0 49.548 22.165 49.548 49.548 0 27.351-22.198 49.548-49.548 49.548l-43.041-0.33 65.041 66.395h27.549v-346.839c0-27.351 22.198-49.548 49.548-49.548s49.548 22.198 49.548 49.548v644.129h280.774c27.351 0 49.548 22.165 49.548 49.548 0 27.351-22.198 49.548-49.548 49.548zM842.323 662.71h-313.806v-677.161c0-9.084-7.432-16.516-16.516-16.516s-16.516 7.432-16.516 16.516v379.871h-74.356l-130.213-132.129h121.988c9.084 0 16.516-7.432 16.516-16.516 0-9.117-7.432-16.516-16.516-16.516l-161.858-0.33c-9.084 0-16.516 7.432-16.516 16.516 0 3.832 1.553 7.267 3.766 10.075l125.060 127.306v308.885h-313.806c-9.084 0-16.516 7.399-16.516 16.516 0 9.084 7.432 16.516 16.516 16.516h792.774c9.084 0 16.516-7.432 16.516-16.516 0-9.117-7.432-16.516-16.516-16.516z" horiz-adv-x="892" />
<glyph unicode="&#xe601;" d="M512 919.040c-260.178 0-471.040-210.903-471.040-471.040 0-260.178 210.862-471.040 471.040-471.040 260.178 0 471.040 210.862 471.040 471.040 0 260.137-210.862 471.040-471.040 471.040zM491.52 427.52v-188.948c-55.542-1.27-109.24-7.373-160.072-17.9-18.514 61.235-30.147 131.809-31.949 206.848h192.020zM299.5 468.48c1.802 74.957 13.394 145.572 31.908 206.807 50.872-10.568 104.571-16.63 160.113-17.859v-188.948h-192.020zM532.48 427.52h191.98c-1.802-75.039-13.394-145.613-31.908-206.848-50.831 10.527-104.53 16.589-160.072 17.9v188.948zM532.48 468.48v188.948c55.542 1.188 109.24 7.291 160.072 17.859 18.514-61.235 30.147-131.85 31.908-206.807h-191.98zM724.173 682.619c44.728 11.141 86.917 25.6 125.993 42.967 58.081-70.656 94.577-159.703 99.082-257.106h-192.020c-1.802 78.029-13.885 150.528-33.055 214.139zM827.392 751.186c-35.226-14.95-73.236-27.116-113.254-36.864-24.289 67.748-57.508 122.798-96.625 158.556 81.306-20.234 153.641-63.201 209.879-121.692zM682.23 706.499c-47.555-9.544-97.853-14.664-149.75-15.852v193.372c60.621-12.534 114.524-80.323 149.75-177.521zM491.52 884.019v-193.413c-51.896 1.188-102.195 6.308-149.75 15.852 35.226 97.239 89.088 165.028 149.75 177.562zM406.487 872.878c-39.117-35.758-72.335-90.808-96.666-158.556-39.977 9.748-77.988 21.914-113.213 36.864 56.238 58.491 128.532 101.458 209.879 121.692zM173.834 725.586c39.076-17.367 81.265-31.826 125.993-42.967-19.169-63.611-31.252-136.11-33.014-214.139h-192.061c4.506 97.403 41.001 186.491 99.082 257.106zM266.813 427.52c1.761-78.070 13.844-150.569 33.055-214.18-44.728-11.182-86.917-25.559-125.993-43.008-58.081 70.697-94.577 159.744-99.082 257.188h192.020zM196.608 144.814c35.226 14.868 73.236 27.075 113.254 36.782 24.33-67.666 57.508-122.798 96.625-158.556-81.347 20.234-153.641 63.242-209.879 121.774zM341.77 189.46c47.555 9.544 97.894 14.582 149.75 15.811v-193.372c-60.662 12.575-114.524 80.364-149.75 177.562zM532.48 11.94v193.372c51.896-1.188 102.195-6.226 149.75-15.811-35.226-97.239-89.129-165.028-149.75-177.562zM617.513 23.040c39.117 35.758 72.335 90.89 96.625 158.556 40.018-9.708 77.988-21.914 113.254-36.782-56.238-58.532-128.573-101.54-209.879-121.774zM850.166 170.332c-39.076 17.449-81.265 31.826-125.993 43.008 19.21 63.652 31.293 136.11 33.055 214.18h192.020c-4.547-97.444-41.001-186.532-99.082-257.188z" />
<glyph unicode="&#xe602;" d="M896 448v512h-469.333v-256h-426.667v-768h1322.667v512h-426.667zM426.667-21.333h-384v682.667h384v-682.667zM853.333-21.333h-384v938.667h384v-938.667zM1280-21.333h-384v426.667h384v-426.667zM682.667 618.667v213.333h-42.667v-42.667h-42.667v-42.667h42.667v-128h-42.667v-42.667h128v42.667zM170.667 576v-42.667h85.333v-42.667h-85.333v-128h128v42.667h-85.333v42.667h85.333v128zM1024 320v-42.667h85.333v-42.667h-42.667v-42.667h42.667v-42.667h-85.333v-42.667h128v213.333z" horiz-adv-x="1323" />
<glyph unicode="&#xe603;" d="M328.894 417.887c21.694 13.615 56.396 32.616 109.265 70.239 45.852 32.73 130.731 91.667 130.731 242.233 0 121.704-79.151 229.641-79.151 229.641h-410.586c0 0-79.151-107.937-79.151-229.641 0-150.604 84.954-209.503 130.769-242.233 52.831-37.623 87.533-56.623 109.227-70.239 14.791-9.292 25.486-17.901 25.486-26.776v-417.185h-170.667v-37.926h379.259v37.926h-170.667v417.185c0 9.14 10.733 17.484 25.486 26.776zM99.556 922.074h369.778c19.684-31.782 60.795-108.165 61.478-189.63h-492.734c0.645 81.503 41.832 157.886 61.478 189.63zM260.134 450.010c-5.348 3.375-11.454 7.054-18.356 11.226-21.125 12.667-49.948 29.999-88.974 57.799l-1.479 1.062c-40.695 29.013-102.059 71.945-113.399 174.801h493.037c-11.34-102.855-72.666-145.863-113.361-174.801l-1.441-1.024c-38.988-27.762-67.849-45.094-88.936-57.761-6.978-4.172-13.16-7.851-18.546-11.264-6.751-4.248-16.043-10.126-24.311-18.091-8.457 8.154-17.863 14.071-24.235 18.053z" horiz-adv-x="569" />
<glyph unicode="&#xe604;" d="M512 720c35.328 0 64-28.736 64-64s-28.672-64-64-64-64 28.736-64 64 28.672 64 64 64zM512 752c-52.992 0-96-43.008-96-96 0-53.024 43.008-96 96-96 52.992 0 96 42.976 96 96 0 52.992-43.008 96-96 96v0zM620.768 229.92c-4.96-9.76-11.104-18.848-18.304-26.944l208.832-208.352c6.24-6.208 6.24-16.384 0-22.624-6.24-6.208-16.384-6.208-22.624 0l-210.496 209.984c-9.312-6.24-19.488-11.264-30.336-14.912l218.208-217.728c18.752-18.72 50.944-16.928 67.872 0 18.752 18.784 18.752 49.152 0 67.904l-213.152 212.672zM881.92 785.952c-18.752 18.752-49.12 18.752-67.872 0l-240.8-241.952h-61.248c-52.992 0-96-43.008-96-96v-160h-128c-35.328 0-64-28.672-64-64v-240c0-26.496 21.504-48 48-48s48 21.504 48 48v208h192c52.992 0 96 43.008 96 96v155.040l273.92 275.040c18.752 18.72 18.752 49.12 0 67.872zM859.328 740.704l-283.328-284.896v-167.808c0-35.296-28.704-64-64-64h-224v-240c0-8.8-7.2-16-16-16s-16 7.2-16 16v240c0 17.664 14.368 32 32 32h160v192c0 35.264 28.736 64 64 64h74.72l249.984 251.296c6.208 6.24 16.384 6.24 22.624 0s6.24-16.352 0-22.592zM398.24 506.432l-233.568 234.24c-6.24 6.24-6.24 16.384 0 22.624s16.416 6.24 22.624 0l229.248-230.304c7.136 8 15.136 15.2 24.064 21.184l-230.656 231.776c-18.752 18.752-49.12 18.752-67.872 0-18.752-18.752-18.752-49.12 0-67.872l244.448-245.056c2.304 11.776 6.336 23.008 11.712 33.408zM1024 832h-32v96h-32v32h-32v-128h-832v128h-32v-32h-32v-96h-32v-32h32v-96h32v-32h32v128h832v-128h32v32h32v96h32z" />
<glyph unicode="&#xe605;" d="M327.68 857.6c0-56.554-45.846-102.4-102.4-102.4s-102.4 45.846-102.4 102.4c0 56.554 45.846 102.4 102.4 102.4 56.554 0 102.4-45.846 102.4-102.4zM737.28 878.080c45.179 0 81.92-36.782 81.92-81.92s-36.741-81.92-81.92-81.92-81.92 36.782-81.92 81.92 36.741 81.92 81.92 81.92zM737.28 919.040c-67.83 0-122.88-55.009-122.88-122.88s55.050-122.88 122.88-122.88c67.83 0 122.88 55.009 122.88 122.88s-55.050 122.88-122.88 122.88v0zM1103.749 47.575l-18.309 36.618-18.309-36.659c-0.369-0.655-36.086-70.574-104.571-70.574-67.912 0-104.243 69.919-104.571 70.615l-18.309 36.618-18.309-36.659c-0.369-0.655-36.086-70.574-104.571-70.574-67.912 0-104.243 69.919-104.571 70.615l-18.309 36.618-18.309-36.659c-0.369-0.655-36.086-70.574-104.571-70.574-67.912 0-104.243 69.919-104.571 70.615l-18.309 36.618-18.309-36.659c-0.369-0.655-36.086-70.574-104.571-70.574-67.912 0-104.243 69.919-104.571 70.615l-18.309 36.618-18.309-36.659c-0.328-0.573-29.041-56.443-84.091-68.239v-41.738c49.48 7.25 83.395 39.404 102.4 63.693 21.504-27.484 62.136-65.249 122.88-65.249s101.376 37.765 122.88 65.249c21.504-27.484 62.136-65.249 122.88-65.249s101.376 37.765 122.88 65.249c21.504-27.484 62.136-65.249 122.88-65.249s101.376 37.765 122.88 65.249c21.504-27.484 62.136-65.249 122.88-65.249s101.376 37.765 122.88 65.249c19.005-24.289 52.92-56.443 102.4-63.693v41.738c-54.641 11.878-83.804 67.666-84.091 68.28zM1103.749 211.415l-18.309 36.618-18.309-36.659c-0.369-0.655-36.086-70.574-104.571-70.574-67.912 0-104.243 69.919-104.571 70.615l-18.309 36.618-18.309-36.659c-0.369-0.655-36.086-70.574-104.571-70.574-67.912 0-104.243 69.919-104.571 70.615l-18.309 36.618-18.309-36.659c-0.369-0.655-36.086-70.574-104.571-70.574-67.912 0-104.243 69.919-104.571 70.615l-18.309 36.618-18.309-36.659c-0.369-0.655-36.086-70.574-104.571-70.574-67.912 0-104.243 69.919-104.571 70.615l-18.309 36.618-18.309-36.659c-0.328-0.573-29.041-56.443-84.091-68.239v-41.738c49.48 7.25 83.395 39.404 102.4 63.693 21.504-27.484 62.136-65.249 122.88-65.249s101.376 37.765 122.88 65.249c21.504-27.484 62.136-65.249 122.88-65.249s101.376 37.765 122.88 65.249c21.504-27.484 62.136-65.249 122.88-65.249s101.376 37.765 122.88 65.249c21.504-27.484 62.136-65.249 122.88-65.249s101.376 37.765 122.88 65.249c19.005-24.289 52.92-56.443 102.4-63.693v41.738c-54.641 11.878-83.804 67.666-84.091 68.28zM1103.749 375.255l-18.309 36.618-18.309-36.659c-0.369-0.655-36.086-70.574-104.571-70.574-67.912 0-104.243 69.919-104.571 70.615l-18.309 36.618-18.309-36.659c-0.369-0.655-36.086-70.574-104.571-70.574-67.912 0-104.243 69.919-104.571 70.615l-18.309 36.618-18.309-36.659c-0.369-0.655-36.086-70.574-104.571-70.574-67.912 0-104.243 69.919-104.571 70.615l-18.309 36.618-18.309-36.659c-0.369-0.655-36.086-70.574-104.571-70.574-67.912 0-104.243 69.919-104.571 70.615l-18.309 36.618-18.309-36.659c-0.328-0.573-29.041-56.443-84.091-68.239v-41.738c49.48 7.25 83.395 39.404 102.4 63.693 21.504-27.484 62.136-65.249 122.88-65.249s101.376 37.765 122.88 65.249c21.504-27.484 62.136-65.249 122.88-65.249s101.376 37.765 122.88 65.249c21.504-27.484 62.136-65.249 122.88-65.249s101.376 37.765 122.88 65.249c21.504-27.484 62.136-65.249 122.88-65.249s101.376 37.765 122.88 65.249c19.005-24.289 52.92-56.443 102.4-63.693v41.738c-54.641 11.878-83.804 67.666-84.091 68.28zM723.026 632.566l-110.060 40.714h-387.686c-33.915 0-61.44-27.525-61.44-61.44 0-27.607 18.309-50.668 43.377-58.45l276.152-74.424-40.223-117.268c8.233-4.383 17.572-7.332 27.894-7.332 4.342 0 8.315 0.778 12.247 1.679l81.756 235.315h-339.763c-11.264 0-20.48 9.216-20.48 20.48s9.216 20.48 20.48 20.48h380.396l92.652-33.669c42.394-15.442 65.208-62.423 49.766-104.899l-46.899-137.052c4.915-1.434 10.076-2.376 15.606-2.376 10.895 0 20.562 3.195 29.082 7.905l39.895 117.309c21.832 60.129-6.103 126.198-62.751 153.027zM507.822 550.4l-11.182-32.604-121.446 32.604h132.628z" horiz-adv-x="1188" />
<glyph unicode="&#xe606;" d="M623.304 180.87c0-36.883-29.9-66.783-66.783-66.783s-66.783 29.9-66.783 66.783c0 36.883 29.9 66.783 66.783 66.783 36.883 0 66.783-29.9 66.783-66.783zM554.963 292.263c12.288-1.558 23.552 18.61 25.11 30.854l42.474 336.095c0.134 1.38-0.045 2.849 0 4.274 2.093 19.501-4.007 39.58-18.877 54.45-26.090 26.090-68.341 26.090-94.475 0-13.802-13.846-20.079-32.278-19.278-50.354-0.134-2.671-0.401-5.209 0-8.415l45.59-336.006c1.38-9.839 9.127-29.607 19.456-30.898zM556.522 915.478c55.251 0 97.28-26.713 135.702-88.821l351.187-643.784c23.864-34.46 34.059-61.707 34.059-91.047 0-68.519-57.255-111.304-133.165-111.304h-775.524c-75.91 0-133.165 42.785-133.165 111.304 0 29.34 10.151 56.587 35.217 92.783l349.852 641.825c38.556 62.33 80.584 89.043 135.836 89.043zM556.522 960c-63.488 0-119.363-39.135-166.111-114.866l-350.030-642.003c-26.446-38.155-40.381-72.17-40.381-111.304 0-90.067 75.731-155.826 168.782-155.826h775.48c93.050 0 168.782 65.759 168.782 155.826 0 39.135-13.98 73.149-40.381 111.304l-350.030 642.003c-46.748 75.731-102.623 114.866-166.111 114.866v0z" horiz-adv-x="1113" />
<glyph unicode="&#xe607;" d="M608 224v-96h-480v96h480zM640 256h-544v-160h544v160zM304 192h128v-32h-128v32zM416 640h32v-96h-32v96zM288 640h32v-96h-32v96zM96 896v-608h544v608h-544zM352 320h-224v544h224v-544zM608 320h-224v544h224v-544zM736 960h-736v-32h32v-992h32v96h608v-96h32v992h32v32zM672 64h-608v864h608v-864z" horiz-adv-x="736" />
<glyph unicode="&#xe608;" d="M599.502 486.978l-95.661 44.131-10.207 68.013c-0.462 19.951-6.805 39.936-19.687 57.179-7.102 9.447-15.162 16.78-24.047 22.825l-7.267-37.194c1.685-1.784 3.435-3.468 4.889-5.483 7.366-9.844 11.297-21.108 12.519-32.504l14.138-95.562 111.352-51.365c8.258-3.799 11.859-13.675 7.994-21.933s-13.708-11.793-21.933-7.994l-127.505 58.963-12.883 97.214-19.885-101.541 2.378-18.069 143.855-66.527c24.807-11.561 54.338-0.826 65.866 24.014 3.105 6.639 4.096 13.675 4.129 20.645 0.165 18.762-9.943 36.765-28.044 45.188zM198.524 275.274l-60.845-293.326c-1.949-8.886-10.769-14.501-19.687-12.552-8.919 2.015-14.534 10.835-12.552 19.687l64.149 309.050c-10.636 9.579-19.687 20.678-26.657 33.131l-69.698-335.013c-5.946-26.723 10.901-53.149 37.624-59.095s53.182 10.967 59.128 37.69l57.906 277.801-29.366 22.627zM418.948-3.749l-70.127 336.896 63.95 325.302c0.066-0.066 0.198-0.132 0.264-0.165l6.639 34.287c-22.528 11.925-49.548 21.999-78.253 28.21-55.296 11.925-105.307 10.009-141.576-2.973l0.231 0.198-123.21-43.603-0.198 0.429-28.077-10.207-47.401-219.268c-5.913-26.723 10.934-53.149 37.657-59.095s52.323 12.519 58.269 39.242l36.203 164.269 69.103 25.171-40.035-187.921c-4.294-22.264-5.351-42.942 2.676-64.974 7.366-20.183 20.612-36.468 37.095-47.732l58.698-44.891 61.341-294.516c5.946-26.723 32.372-43.603 59.095-37.69 26.723 5.88 43.57 32.339 37.657 59.029zM374.123-30.571c-8.919-1.982-17.705 3.667-19.687 12.552l-63.389 305.978-74.62 57.047c-8.886 7.267-16.186 16.747-20.381 28.309-4.658 12.783-4.757 25.369-2.874 38.251l53.578 254.646-141.741-51.365-40.167-182.206c-2.015-8.919-10.802-14.567-19.687-12.585-8.919 1.982-14.534 10.835-12.585 19.687l44.329 199.548 131.138 46.575c30.324 11.033 76.238 13.741 126.249 2.643 17.078-3.766 33.098-9.051 47.765-15.162l-66.395-342.049 71.052-342.181c1.949-8.853-3.667-17.705-12.585-19.687zM363.355 910.452c36.402 0 66.065-29.663 66.065-66.065 0-36.435-29.663-66.065-66.065-66.065-36.435 0-66.065 29.63-66.065 66.065 0 36.402 29.63 66.065 66.065 66.065zM363.355 943.484c-54.701 0-99.097-44.395-99.097-99.097 0-54.767 44.395-99.097 99.097-99.097 54.701 0 99.097 44.329 99.097 99.097 0 54.701-44.395 99.097-99.097 99.097v0z" horiz-adv-x="628" />
<glyph unicode="&#xe609;" d="M590.769 652.446v307.554l-433.231-315.077h-157.538v-393.846h157.538l433.231-315.077v307.554c70.577 40.921 118.154 117.051 118.154 204.446s-47.577 163.525-118.154 204.446zM39.385 290.462v315.077h118.154v-315.077h-118.154zM551.385 13.351l-354.462 257.812v353.674l354.462 257.812v-869.297zM590.769 281.167v333.666c52.263-37.14 86.646-97.831 86.646-166.833s-34.383-129.694-86.646-166.833zM776.468 290.462l126.622 129.378 120.95-129.378 28.121 28.121-120.911 129.418 120.911 129.378-28.121 28.16-120.95-129.378-126.622 129.378-28.16-28.16 126.622-129.378-126.622-129.418z" horiz-adv-x="1063" />
<glyph unicode="&#xe60a;" d="M590.769 652.446v307.554l-433.231-315.077h-157.538v-393.846h157.538l433.231-315.077v307.554c70.577 40.921 118.154 117.051 118.154 204.446s-47.577 163.525-118.154 204.446zM39.385 290.462v315.077h118.154v-315.077h-118.154zM551.385 13.351l-354.462 257.812v353.674l354.462 257.812v-869.297zM590.769 281.167v333.666c52.263-37.14 86.646-97.831 86.646-166.833s-34.383-129.694-86.646-166.833zM874.338 448c0-92.987-39.897-176.561-102.991-235.52l22.292-22.331c68.844 64.591 112.207 155.963 112.207 257.851s-43.362 193.26-112.207 257.89l-22.292-22.331c63.134-58.959 102.991-142.572 102.991-235.559z" horiz-adv-x="906" />
<glyph unicode="&#xe60b;" d="M590.769 652.446v307.554l-433.231-315.077h-157.538v-393.846h157.538l433.231-315.077v307.554c70.577 40.921 118.154 117.051 118.154 204.446s-47.577 163.525-118.154 204.446zM39.385 290.462v315.077h118.154v-315.077h-118.154zM551.385 13.351l-354.462 257.812v353.674l354.462 257.812v-869.297zM590.769 281.167v333.666c52.263-37.14 86.646-97.831 86.646-166.833s-34.383-129.694-86.646-166.833z" horiz-adv-x="709" />
<glyph unicode="&#xe60c;" d="M590.769 652.446v307.554l-433.231-315.077h-157.538v-393.846h157.538l433.231-315.077v307.554c70.577 40.921 118.154 117.051 118.154 204.446s-47.577 163.525-118.154 204.446zM39.385 290.462v315.077h118.154v-315.077h-118.154zM551.385 13.351l-354.462 257.812v353.674l354.462 257.812v-869.297zM590.769 281.167v333.666c52.263-37.14 86.646-97.831 86.646-166.833s-34.383-129.694-86.646-166.833zM1031.877 448c0-141.706-67.623-267.382-171.717-348.16l22.567-22.607c109.726 86.528 180.657 220.16 180.657 370.767s-70.932 284.199-180.657 370.767l-22.567-22.646c104.094-80.738 171.717-206.415 171.717-348.121zM850.59 448c0-92.987-39.897-176.561-102.991-235.52l22.292-22.331c68.844 64.63 112.207 156.002 112.207 257.89s-43.362 193.26-112.207 257.89l-22.292-22.331c63.094-58.998 102.991-142.612 102.991-235.599z" horiz-adv-x="1063" />
<glyph unicode="&#xe60d;" d="M160 880c0-44.183-35.817-80-80-80s-80 35.817-80 80c0 44.183 35.817 80 80 80 44.183 0 80-35.817 80-80zM558.592 0.032l-121.696 346.4 80.96 238.24c17.088 46.944-4.736 98.528-48.96 119.488l-86.048 31.84h-302.848c-26.496 0-48-21.504-48-48s21.504-48 48-48h-6.368l208-55.808-57.632-168.192v-432c0-26.496 21.504-48 48-48s48 21.504 48 48v368h15.296l133.088-384.8c6.912-18.976 24.576-30.56 43.584-31.168 5.92-0.192 12 0.352 17.92 2.464 24.96 9.088 37.76 36.64 28.704 61.536zM197.12 640h103.584l-8.704-25.472-94.88 25.472zM518.976-31.392c-8.288-3.040-17.504 1.28-20.512 9.568l-140.672 405.824h-69.792v-400c0-8.8-7.2-16-16-16s-16 7.2-16 16v430.56l89.44 257.44h-265.44c-8.8 0-16 7.2-16 16s7.2 16 16 16h297.216l72.32-26.304c33.184-12.064 50.976-48.768 38.912-81.952l-85.92-248.64 126.016-358.016c3.008-8.288-1.28-17.472-9.568-20.48zM480 896c35.264 0 64-28.736 64-64s-28.736-64-64-64c-35.296 0-64 28.736-64 64s28.704 64 64 64zM480 928c-53.024 0-96-42.976-96-96s42.976-96 96-96c53.024 0 96 42.976 96 96s-42.976 96-96 96v0z" horiz-adv-x="576" />
<glyph unicode="&#xe60e;" d="M170.667 829.824v130.176h-42.667v-130.176c-72.235-10.411-128-71.979-128-147.157s55.765-136.747 128-147.157v-599.509h42.667v599.509c72.235 10.411 128 71.979 128 147.157s-55.765 136.747-128 147.157zM149.333 567.467c-63.616 0-115.2 51.584-115.2 115.2s51.584 115.2 115.2 115.2c63.616 0 115.2-51.584 115.2-115.2s-51.584-115.2-115.2-115.2zM554.667 360.491v599.509h-42.667v-599.509c-72.235-10.411-128-72.021-128-147.157s55.765-136.747 128-147.157v-130.176h42.667v130.176c72.235 10.411 128 72.021 128 147.157s-55.765 136.747-128 147.157zM533.333 98.133c-63.616 0-115.2 51.584-115.2 115.2s51.584 115.2 115.2 115.2c63.616 0 115.2-51.584 115.2-115.2s-51.584-115.2-115.2-115.2zM938.667 656.981v303.019h-42.667v-303.019c-72.235-10.411-128-71.979-128-147.157s55.765-136.747 128-147.157v-426.667h42.667v426.667c72.235 10.411 128 72.021 128 147.157s-55.765 136.747-128 147.157zM917.333 396.8c-63.616 0-115.2 51.584-115.2 115.2s51.584 115.2 115.2 115.2c63.616 0 115.2-51.584 115.2-115.2s-51.584-115.2-115.2-115.2z" horiz-adv-x="1067" />
<glyph unicode="&#xe60f;" d="M532.48 886.272c162.611 0 294.912-132.342 294.912-294.912s-132.301-294.912-294.912-294.912-294.912 132.301-294.912 294.912 132.301 294.912 294.912 294.912zM532.48 919.040c-180.961 0-327.68-146.719-327.68-327.68s146.719-327.68 327.68-327.68 327.68 146.719 327.68 327.68-146.719 327.68-327.68 327.68v0zM368.64 599.552c162.611 0 294.912-132.342 294.912-294.912s-132.301-294.912-294.912-294.912-294.912 132.301-294.912 294.912 132.301 294.912 294.912 294.912zM368.64 632.32c-180.961 0-327.68-146.719-327.68-327.68s146.719-327.68 327.68-327.68 327.68 146.719 327.68 327.68-146.719 327.68-327.68 327.68v0zM696.32 599.552c162.611 0 294.912-132.342 294.912-294.912s-132.301-294.912-294.912-294.912-294.912 132.301-294.912 294.912 132.301 294.912 294.912 294.912zM696.32 632.32c-180.961 0-327.68-146.719-327.68-327.68s146.719-327.68 327.68-327.68 327.68 146.719 327.68 327.68-146.719 327.68-327.68 327.68v0z" horiz-adv-x="1065" />
<glyph unicode="&#xe610;" d="M412.903 926.968c100.187 0 181.677-81.524 181.677-181.71s-81.491-181.644-181.677-181.644c-100.187 0-181.677 81.491-181.677 181.644s81.491 181.71 181.677 181.71zM412.903 960c-118.586 0-214.71-96.124-214.71-214.743 0-118.553 96.124-214.677 214.71-214.677 118.586 0 214.71 96.124 214.71 214.677 0 118.619-96.124 214.743-214.71 214.743v0zM825.806 84.645l-33.032 187.656c-37.161 124.763-151.816 225.247-379.871 225.247-228.055 0-345.451-99.097-379.871-225.247l-33.032-187.656c0-27.153 65.668-51.2 166.78-66.263l-1.619-16.318c0-36.468 110.889-66.065 247.742-66.065s247.742 29.597 247.742 66.065l-1.619 16.318c101.112 15.063 166.78 39.11 166.78 66.263zM655.756 51.316l-11.627 115.91h-33.032l16.516-165.161c-25.435-13.973-104.382-33.032-214.71-33.032-110.328 0-189.308 19.060-214.71 33.032l16.516 165.161h-33.032l-11.627-115.91c-67.584 10.009-117.595 22.891-137.018 33.33l33.032 187.656c33.032 106.892 140.949 192.215 346.839 192.215s313.806-83.968 346.839-192.215l33.032-187.656c-19.423-10.438-69.434-23.321-137.018-33.33zM825.806 88.774h-33.032l-8.192-4.129h41.224zM0 88.774h33.032l8.192-4.129h-41.224z" horiz-adv-x="826" />
<glyph unicode="&#xe611;" d="M677.161 926.968c100.187 0 181.677-81.491 181.677-181.677s-81.491-181.677-181.677-181.677c-100.187 0-181.677 81.491-181.677 181.677s81.491 181.677 181.677 181.677zM677.161 960c-118.586 0-214.71-96.124-214.71-214.71s96.124-214.71 214.71-214.71c118.586 0 214.71 96.124 214.71 214.71s-96.124 214.71-214.71 214.71v0zM766.943 833.156l-140.156-140.156-58.401 58.401-23.354-23.354 81.755-81.755 163.51 163.51zM759.742 67.171l-30.39 165.591c-34.188 110.063-139.66 198.722-349.481 198.722-209.821 0-317.803-87.436-349.481-198.755l-30.39-165.558c0-23.981 60.383-45.188 153.435-58.467l-1.486-14.402c0-32.206 102.037-58.302 227.923-58.302 125.853 0 227.923 26.095 227.923 58.302l-1.519 14.402c93.085 13.279 153.468 34.486 153.468 58.467zM602.872 41.571l-9.645 92.622h-30.39l10.57-128.925 0.529-4.889c-18.069-12.057-86.511-31.348-194.065-31.348-107.553 0-175.996 19.291-194.065 31.348l0.529 4.889 10.57 128.925h-30.39l-9.645-92.622c-80.929 11.627-111.781 25.567-122.12 31.876l27.846 151.717c32.603 111.781 145.21 173.287 317.275 173.287 168.96 0 281.567-61.638 317.341-173.684l27.78-151.321c-10.339-6.276-41.191-20.216-122.12-31.876zM505.427 566.982c-26.36-41.654-72.704-69.434-125.556-69.434-81.953 0-148.645 66.692-148.645 148.645 0 81.953 66.692 148.645 148.645 148.645 18.696 0 36.501-3.601 52.984-9.943 1.784 11.066 4.096 21.966 7.3 32.504-18.861 6.673-39.11 10.471-60.284 10.471-100.319 0-181.677-81.325-181.677-181.677 0-100.352 81.358-181.677 181.677-181.677 63.092 0 118.652 32.206 151.222 80.995-9.018 6.606-17.606 13.741-25.666 21.471z" horiz-adv-x="892" />
<glyph unicode="&#xe612;" d="M677.161 926.968c100.187 0 181.677-81.491 181.677-181.677s-81.491-181.677-181.677-181.677c-100.187 0-181.677 81.491-181.677 181.677s81.491 181.677 181.677 181.677zM677.161 960c-118.586 0-214.71-96.124-214.71-214.71s96.124-214.71 214.71-214.71c118.586 0 214.71 96.124 214.71 214.71s-96.124 214.71-214.71 214.71v0zM561.548 761.806h231.226v-33.032h-231.226v33.032zM759.742 67.171l-30.39 165.591c-34.188 110.063-139.66 198.722-349.481 198.722-209.821 0-317.803-87.436-349.481-198.755l-30.39-165.558c0-23.981 60.383-45.188 153.435-58.467l-1.486-14.402c0-32.206 102.037-58.302 227.923-58.302 125.853 0 227.923 26.095 227.923 58.302l-1.519 14.402c93.085 13.279 153.468 34.486 153.468 58.467zM602.872 41.571l-9.645 92.622h-30.39l10.57-128.925 0.529-4.889c-18.069-12.057-86.511-31.348-194.065-31.348-107.553 0-175.996 19.291-194.065 31.348l0.529 4.889 10.57 128.925h-30.39l-9.645-92.622c-80.929 11.627-111.781 25.567-122.12 31.876l27.846 151.717c32.603 111.781 145.21 173.287 317.275 173.287 168.96 0 281.567-61.638 317.341-173.684l27.78-151.321c-10.339-6.276-41.191-20.216-122.12-31.876zM505.427 566.982c-26.36-41.654-72.704-69.434-125.556-69.434-81.953 0-148.645 66.692-148.645 148.645 0 81.953 66.692 148.645 148.645 148.645 18.696 0 36.501-3.601 52.984-9.943 1.784 11.066 4.096 21.966 7.3 32.504-18.861 6.673-39.11 10.471-60.284 10.471-100.319 0-181.677-81.325-181.677-181.677 0-100.352 81.358-181.677 181.677-181.677 63.092 0 118.652 32.206 151.222 80.995-9.018 6.606-17.606 13.741-25.666 21.471z" horiz-adv-x="892" />
<glyph unicode="&#xe613;" d="M677.161 926.968c100.187 0 181.677-81.491 181.677-181.677s-81.491-181.677-181.677-181.677c-100.187 0-181.677 81.491-181.677 181.677s81.491 181.677 181.677 181.677zM677.161 960c-118.586 0-214.71-96.124-214.71-214.71s96.124-214.71 214.71-214.71c118.586 0 214.71 96.124 214.71 214.71s-96.124 214.71-214.71 214.71v0zM770.577 675.229l-70.061 70.061 70.061 70.061-23.354 23.354-70.061-70.061-70.061 70.061-23.354-23.354 70.061-70.061-70.061-70.061 23.354-23.354 70.061 70.061 70.061-70.061zM759.742 67.171l-30.39 165.591c-34.188 110.063-139.66 198.722-349.481 198.722-209.821 0-317.803-87.436-349.481-198.755l-30.39-165.558c0-23.981 60.383-45.188 153.435-58.467l-1.486-14.402c0-32.206 102.037-58.302 227.923-58.302 125.853 0 227.923 26.095 227.923 58.302l-1.519 14.402c93.085 13.279 153.468 34.486 153.468 58.467zM602.872 41.571l-9.645 92.622h-30.39l10.57-128.925 0.529-4.889c-18.069-12.057-86.511-31.348-194.065-31.348-107.553 0-175.996 19.291-194.065 31.348l0.529 4.889 10.57 128.925h-30.39l-9.645-92.622c-80.929 11.627-111.781 25.567-122.12 31.876l27.846 151.717c32.603 111.781 145.21 173.287 317.275 173.287 168.96 0 281.567-61.638 317.341-173.684l27.78-151.321c-10.339-6.276-41.191-20.216-122.12-31.876zM505.427 566.982c-26.36-41.654-72.704-69.434-125.556-69.434-81.953 0-148.645 66.692-148.645 148.645 0 81.953 66.692 148.645 148.645 148.645 18.696 0 36.501-3.601 52.984-9.943 1.784 11.066 4.096 21.966 7.3 32.504-18.861 6.673-39.11 10.471-60.284 10.471-100.319 0-181.677-81.325-181.677-181.677 0-100.352 81.358-181.677 181.677-181.677 63.092 0 118.652 32.206 151.222 80.995-9.018 6.606-17.606 13.741-25.666 21.471z" horiz-adv-x="892" />
<glyph unicode="&#xe614;" d="M677.161 926.968c100.187 0 181.677-81.491 181.677-181.677s-81.491-181.677-181.677-181.677c-100.187 0-181.677 81.491-181.677 181.677s81.491 181.677 181.677 181.677zM677.161 960c-118.586 0-214.71-96.124-214.71-214.71s96.124-214.71 214.71-214.71c118.586 0 214.71 96.124 214.71 214.71s-96.124 214.71-214.71 214.71v0zM792.774 761.806h-99.097v99.097h-33.032v-99.097h-99.097v-33.032h99.097v-99.097h33.032v99.097h99.097zM759.742 67.171l-30.39 165.591c-34.188 110.063-139.66 198.722-349.481 198.722-209.821 0-317.803-87.436-349.481-198.755l-30.39-165.558c0-23.981 60.383-45.188 153.435-58.467l-1.486-14.402c0-32.206 102.037-58.302 227.923-58.302 125.853 0 227.923 26.095 227.923 58.302l-1.519 14.402c93.085 13.279 153.468 34.486 153.468 58.467zM602.872 41.571l-9.645 92.622h-30.39l10.57-128.925 0.529-4.889c-18.069-12.057-86.511-31.348-194.065-31.348-107.553 0-175.996 19.291-194.065 31.348l0.529 4.889 10.57 128.925h-30.39l-9.645-92.622c-80.929 11.627-111.781 25.567-122.12 31.876l27.846 151.717c32.603 111.781 145.21 173.287 317.275 173.287 168.96 0 281.567-61.638 317.341-173.684l27.78-151.321c-10.339-6.276-41.191-20.216-122.12-31.876zM505.427 566.982c-26.36-41.654-72.704-69.434-125.556-69.434-81.953 0-148.645 66.692-148.645 148.645 0 81.953 66.692 148.645 148.645 148.645 18.696 0 36.501-3.601 52.984-9.943 1.784 11.066 4.096 21.966 7.3 32.504-18.861 6.673-39.11 10.471-60.284 10.471-100.319 0-181.677-81.325-181.677-181.677 0-100.352 81.358-181.677 181.677-181.677 63.092 0 118.652 32.206 151.222 80.995-9.018 6.606-17.606 13.741-25.666 21.471z" horiz-adv-x="892" />
<glyph unicode="&#xe615;" d="M455.111 656.593v-37.926h227.556v-644.741h-644.741v644.741h227.556v37.926h-265.481v-720.593h720.593v720.593zM199.415 797.184l26.738-26.814 115.181 115.105v-570.216h37.926v570.216l115.181-115.105 26.776 26.814-160.92 162.816z" horiz-adv-x="721" />
<glyph unicode="&#xe616;" d="M551.385 916.677v43.323h-118.154v-43.323c-237.647-28.514-423.542-226.225-433.231-468.677h472.615v-393.846c0-43.441-35.289-78.769-78.769-78.769-23.079 0-43.678 10.161-58.092 26.033l-28.002-27.963c21.622-23.001 52.185-37.455 86.095-37.455 78.966 0 118.154 53.012 118.154 118.154v393.846h472.615c-9.689 242.452-195.584 440.162-433.231 468.677zM512 487.385h-476.318c29.105 226.54 222.208 401.723 456.625 401.723s427.52-175.183 456.625-401.723h-436.933z" horiz-adv-x="985" />
<glyph unicode="&#xe617;" d="M1210.182 960h-1117.091c-50.362 0-93.091-41.705-93.091-93.091v-744.727c0-51.386 42.729-93.091 93.091-93.091h558.545v-46.545h-325.818v-46.545h698.182v46.545h-325.818v46.545h512c50.362 0 93.091 41.705 93.091 93.091v744.727c0 51.386-42.729 93.091-93.091 93.091zM1256.727 122.182c0-25.647-21.457-46.545-46.545-46.545h-1117.091c-25.088 0-46.545 20.899-46.545 46.545v744.727c0 25.693 21.457 46.545 46.545 46.545h1117.091c25.088 0 46.545-20.852 46.545-46.545v-744.727z" horiz-adv-x="1303" />
<glyph unicode="&#xe618;" d="M1024 919.040h-204.8v40.96h-614.4v-40.96h-204.8c0-182.6 88.637-339.313 204.8-368.64v0-2.417c1.229-150.364 138.772-272.794 286.72-283.279v-287.744h-163.84v-40.96h368.64v40.96h-163.84v287.744c147.948 10.486 285.491 132.915 286.72 283.279v2.417c116.163 29.327 204.8 186.040 204.8 368.64zM40.96 878.080h163.84v-288.604c-89.498 27.648-152.658 144.097-163.84 288.604zM739.942 427.807c-45.834-78.684-128.86-123.167-227.942-123.167s-182.108 44.483-227.942 123.167c-23.88 36.168-38.298 77.906-38.298 122.593v368.64h532.48v-368.64c0-44.687-14.418-86.426-38.298-122.593zM819.2 589.476v288.809h163.84c-11.182-144.507-74.342-261.161-163.84-288.809zM512 816.64l56.975-122.88h127.345l-102.4-81.92 40.96-143.36-122.88 81.92-122.88-81.92 40.96 143.36-102.4 81.92h127.345z" />
<glyph unicode="&#xe619;" d="M573.44 837.12v51.2c0 39.608-32.072 71.68-71.68 71.68h-225.28c-39.608 0-71.68-32.072-71.68-71.68v-51.2h-204.8v-40.96h40.96l61.44-788.48c0-39.608 32.072-71.68 71.68-71.68h430.080c39.608 0 71.68 32.072 71.68 71.68l61.44 788.48h40.96v40.96h-204.8zM245.76 888.32c0 16.957 13.763 30.72 30.72 30.72h225.28c16.957 0 30.72-13.763 30.72-30.72v-51.2h-286.72v51.2zM643.072 7.68c0-16.957-21.955-30.72-38.912-30.72h-430.080c-16.957 0-38.912 13.763-38.912 30.72l-61.44 788.48h630.784l-61.44-788.48zM368.64 714.24h40.96v-655.36h-40.96v655.36zM278.528 58.88l-20.48 655.36h-32.768l20.48-655.36zM552.96 714.24h-40.96l-12.288-655.36h32.768z" horiz-adv-x="778" />
<glyph unicode="&#xe61a;" d="M256 80.427h-97.963l-30.037 90.24-30.037-90.24h-97.963l79.36-56.405-30.464-88.021 79.104 54.571 79.061-54.571-30.421 87.979 79.36 56.448zM256 464.427h-97.963l-30.037 90.24-30.037-90.24h-97.963l79.36-56.405-30.464-88.021 79.104 54.571 79.061-54.571-30.421 87.979 79.36 56.448zM256 848.427h-97.963l-30.037 90.24-30.037-90.24h-97.963l79.36-56.405-30.464-88.021 79.104 54.571 79.061-54.571-30.379 87.979 79.317 56.448zM341.333 832h810.667v-42.667h-810.667v42.667zM341.333 448h810.667v-42.667h-810.667v42.667zM341.333 64h810.667v-42.667h-810.667v42.667z" horiz-adv-x="1152" />
<glyph unicode="&#xe61b;" d="M544.882 494.232c-0.872 0.607-1.631 1.176-2.465 1.783l-271.777 193.308 193.384-271.777c0.569-0.796 1.176-1.631 1.783-2.427l3.337-4.665 0.265 0.303c0.834-0.948 1.479-2.086 2.389-2.958 22.225-22.225 58.216-22.225 80.441 0 22.225 22.225 22.225 58.216 0 80.441-0.872 0.872-2.010 1.555-2.958 2.427l0.303 0.228-4.703 3.337zM512 922.074c-6.372 0-12.667-0.228-18.963-0.531v-227.025h37.926v196.229c236.203-10.012 424.77-204.155 424.77-442.747 0-245.077-198.656-443.771-443.733-443.771-245.077 0-443.733 198.694-443.733 443.771 0 122.539 49.683 233.434 129.972 313.761l-21.466 21.428c-85.788-85.788-138.847-204.307-138.847-335.189 0-261.841 212.271-474.074 474.074-474.074 261.803 0 474.074 212.233 474.074 474.074 0 261.765-212.271 474.074-474.074 474.074z" />
<glyph unicode="&#xe61c;" d="M924.058 757.658c-21.231 21.231-49.63 31.676-79.292 31.676-35.294 0-72.397-14.78-101.342-43.691-48.469-48.503-57.139-119.945-23.006-167.458l-90.726-90.726c-3.277 2.662-6.758 5.086-10.752 6.963l-99.942 51.849-10.684 70.963c-0.444 20.617-6.997 41.335-20.309 59.085-7.305 9.796-14.199 17.306-24.883 23.62-31.13 18.466-82.432 38.127-112.060 44.544-57.89 12.493-110.148 10.274-147.763-3.584l-0.137 0.171-158.788-57.685-43.145-199.407c-6.144-27.58 11.264-54.921 38.912-61.030 27.614-6.144 54.955 11.264 61.030 38.878l30.993 144.384 75.196 27.409-133.154-635.324c-6.144-27.614 11.298-54.921 38.912-61.065s54.921 11.298 61.065 38.912l77.858 371.575 56.218-154.453 31.744-212.685c3.652-28.023 29.389-47.753 57.446-44.1 28.023 3.686 47.753 29.423 44.1 57.481l-32.87 221.15-48.469 134.861 49.118 247.842 16.452-120.354 9.523-4.471 140.322-71.305c25.634-11.947 56.149-0.853 68.062 24.781 4.676 9.967 5.734 20.651 3.891 30.686l96.973 96.973c19.183-13.79 42.189-20.685 66.15-20.685 35.328 0 72.397 14.814 101.342 43.691 53.18 53.111 58.573 133.973 12.015 180.531zM612.762 440.798c-3.994-8.533-14.165-12.22-22.665-8.26l-133.393 67.755-16.998 118.34c-0.717 6.485-2.867 12.117-6.042 16.418-0.034 0.034-0.102 0.068-0.102 0.137-4.642 2.935-38.366 20.787-46.729 24.576l-61.508-312.73 49.050-135.782 33.28-221.798c1.195-9.318-5.325-17.92-14.677-19.115-9.318-1.229-17.92 5.325-19.183 14.677l-32.563 215.689-64.444 179.029-53.35-0.102-82.603-396.151c-2.048-9.182-11.127-14.985-20.343-12.937s-15.019 11.162-13.005 20.343l145.681 695.706-150.528-54.613-34.782-162.714c-2.048-9.216-11.162-14.985-20.378-12.971s-14.985 11.162-12.937 20.378l39.253 181.009 139.332 50.722c31.334 11.401 78.814 14.234 130.458 2.765 31.13-6.895 81.135-29.252 111.991-49.596 0 0 3.482-3.584 5.086-5.666 7.612-10.172 11.674-21.845 12.937-33.587l14.575-98.714 116.292-60.109c8.567-3.994 12.288-14.165 8.294-22.699zM887.91 601.156c-21.402-21.402-49.596-33.69-77.21-33.69-21.606 0-41.199 7.714-55.125 21.675-15.462 15.462-23.108 37.274-21.47 61.44 1.707 25.873 13.619 51.063 33.485 70.929 21.402 21.402 49.562 33.69 77.175 33.69 15.258 0 37.274-3.755 55.159-21.675 33.178-33.143 27.785-92.57-12.015-132.369zM375.467 925.867c37.615 0 68.267-30.652 68.267-68.267s-30.652-68.267-68.267-68.267c-37.649 0-68.267 30.652-68.267 68.267s30.618 68.267 68.267 68.267zM375.467 960c-56.559 0-102.4-45.841-102.4-102.4s45.841-102.4 102.4-102.4c56.559 0 102.4 45.841 102.4 102.4s-45.841 102.4-102.4 102.4v0z" horiz-adv-x="956" />
<glyph unicode="&#xe61d;" d="M512 960c-282.747 0-512-229.253-512-512s229.253-512 512-512c282.747 0 512 229.253 512 512s-229.253 512-512 512zM729.088 448c0 127.058 50.34 242.156 131.4 328.008 80.773-85.852 130.744-201.073 130.744-328.008s-49.971-242.156-130.744-328.008c-81.060 85.852-131.4 200.95-131.4 328.008zM163.512 776.008c81.060-85.852 131.4-200.95 131.4-328.008s-50.34-242.156-131.4-328.008c-80.814 85.852-130.744 201.073-130.744 328.008s49.93 242.156 130.744 328.008zM186.941 96.85c86.876 91.709 140.739 214.917 140.739 351.15s-53.862 259.441-140.739 351.15c85.565 79.258 199.557 128.082 325.059 128.082 125.46 0 239.493-48.824 325.018-128.082-86.835-91.709-140.698-214.917-140.698-351.15s53.862-259.441 140.698-351.15c-85.484-79.258-199.557-128.082-325.018-128.082-125.501 0-239.534 48.824-325.059 128.082z" />
<glyph unicode="&#xe61e;" d="M332.8-12.8h819.2v-51.2h-819.2v51.2zM1433.6 908.8v-819.2h-1382.4v819.2h1382.4zM1484.8 960h-1484.8v-921.6h1484.8v921.6z" horiz-adv-x="1485" />
<glyph unicode="&#xe61f;" d="M984.392 841.052l-100.966 101.048c-11.919 11.878-27.566 17.9-43.254 17.9-15.647 0-31.293-6.021-43.295-17.94l-173.138-173.138c-23.839-23.921-23.839-62.628 0-86.548l101.048-100.966c0 0 43.295-72.172-115.425-230.81-102.646-102.728-169.083-120.791-203.203-120.791-18.555 0-27.607 5.366-27.607 5.366l-100.966 100.966c-12.001 12.001-27.648 17.94-43.295 17.94-15.688 0-31.375-5.898-43.295-17.94l-173.138-173.138c-23.921-23.921-23.921-62.628 0-86.548l100.966-100.966c23.716-23.552 67.543-39.485 126.444-39.485 120.709 0 304.742 66.806 508.314 270.418 302.981 302.858 302.981 562.545 230.81 634.634zM646.963 705.516c-11.1 11.141-11.1 29.204 0 40.223l173.138 173.138c5.366 5.366 12.493 8.315 20.070 8.315 7.619 0 14.746-2.949 20.111-8.315l43.172-43.377-213.32-213.279-43.172 43.295zM41.083 99.676c-11.1 11.059-11.1 29.123 0 40.223l173.097 173.056c5.407 5.448 12.575 8.397 20.152 8.397 7.619 0 14.705-2.949 20.070-8.315l43.213-43.459-213.361-213.279-43.172 43.377zM730.44 229.519c-235.315-235.356-417.71-260.71-485.171-260.71-45.875 0-84.46 11.182-103.178 29.901l-34.57 34.57 213.361 213.279 34.57-34.488 2.785-2.867 3.482-2.089c3.973-2.335 18.76-10.076 44.442-10.076 43.786 0 118.62 22.651 226.386 130.417 168.223 168.264 129.761 255.222 120.3 270.868l-2.048 3.441-2.867 2.867-34.529 34.488 213.32 213.279 34.57-34.488c26.952-26.952 42.557-99.123 16.671-199.434-22.446-86.958-83.599-225.034-247.521-388.956z" />
<glyph unicode="&#xe620;" d="M988.69 606.897h-847.448v-282.483c0-156.954 93.325-291.875 227.293-353.103h-368.534v-35.31h1059.31v35.31h-368.569c134.003 61.228 227.328 196.149 227.328 353.103h70.621c58.509 0 105.931 47.422 105.931 105.931v70.621c0 58.509-47.422 105.931-105.931 105.931zM882.759 324.414c0-198.621-154.483-353.103-353.103-353.103s-353.103 154.483-353.103 353.103v247.172h706.207v-247.172zM1059.31 430.345c0-42.831-27.789-70.621-70.621-70.621h-70.621v211.862h70.621c42.831 0 70.621-27.789 70.621-70.621v-70.621zM535.976 664.911l-12.606 25.247c26.059 13.065 62.782 39.689 62.782 57.98 0 10.099-28.072 28.813-46.645 41.207-30.508 20.303-59.286 39.512-59.286 64.724 0 41.949 65.359 76.694 78.46 83.226l12.606-25.247c-26.094-13.1-62.817-39.689-62.817-57.98 0-10.099 28.072-28.813 46.645-41.207 30.508-20.303 59.286-39.512 59.286-64.724 0-41.949-65.324-76.694-78.424-83.226zM359.424 664.911l-12.641 25.212c26.094 13.1 62.817 39.724 62.817 58.015 0 10.099-28.072 28.813-46.645 41.207-30.508 20.303-59.286 39.512-59.286 64.724 0 41.949 65.359 76.694 78.46 83.226l12.606-25.247c-26.094-13.1-62.817-39.689-62.817-57.98 0-10.099 28.072-28.813 46.645-41.207 30.508-20.303 59.286-39.512 59.286-64.724 0-41.949-65.324-76.694-78.424-83.226zM712.527 664.911l-12.606 25.247c26.059 13.065 62.782 39.689 62.782 57.98 0 10.099-28.072 28.813-46.645 41.207-30.508 20.303-59.286 39.512-59.286 64.724 0 41.949 65.359 76.694 78.46 83.226l12.606-25.247c-26.094-13.1-62.817-39.689-62.817-57.98 0-10.099 28.072-28.813 46.645-41.207 30.508-20.303 59.286-39.512 59.286-64.724 0-41.949-65.324-76.694-78.424-83.226z" horiz-adv-x="1095" />
<glyph unicode="&#xe621;" d="M512 927.232c264.233 0 479.232-214.999 479.232-479.232s-214.999-479.232-479.232-479.232c-264.233 0-479.232 214.999-479.232 479.232s214.999 479.232 479.232 479.232zM512 960c-282.747 0-512-229.253-512-512s229.253-512 512-512c282.747 0 512 229.253 512 512s-229.253 512-512 512v0zM512 763.392c173.916 0 315.392-141.476 315.392-315.392s-141.476-315.392-315.392-315.392c-173.916 0-315.392 141.476-315.392 315.392s141.476 315.392 315.392 315.392zM512 796.16c-192.266 0-348.16-155.894-348.16-348.16s155.894-348.16 348.16-348.16c192.266 0 348.16 155.894 348.16 348.16s-155.894 348.16-348.16 348.16v0zM512 599.552c83.558 0 151.552-67.994 151.552-151.552s-67.994-151.552-151.552-151.552-151.552 67.994-151.552 151.552 67.994 151.552 151.552 151.552zM512 632.32c-101.786 0-184.32-82.534-184.32-184.32s82.534-184.32 184.32-184.32c101.786 0 184.32 82.534 184.32 184.32s-82.534 184.32-184.32 184.32v0zM573.44 448c0-33.932-27.508-61.44-61.44-61.44s-61.44 27.508-61.44 61.44c0 33.932 27.508 61.44 61.44 61.44 33.932 0 61.44-27.508 61.44-61.44z" />
<glyph unicode="&#xe622;" d="M798.72 804.352c38.38 0 69.632-31.252 69.632-69.632s-31.252-69.632-69.632-69.632c-38.42 0-69.632 31.252-69.632 69.632s31.212 69.632 69.632 69.632zM798.72 837.12c-56.566 0-102.4-45.834-102.4-102.4s45.834-102.4 102.4-102.4c56.566 0 102.4 45.834 102.4 102.4s-45.834 102.4-102.4 102.4v0zM942.080 919.040c27.116 0 40.96-13.844 40.96-40.96v-286.638c-0.246-18.227 0.778-35.348-11.96-48.087l-550.707-525.722c-9.134-9.134-21.504-14.131-34.857-14.131-13.23 0-25.559 4.997-34.939 14.418l-268.739 268.943c-9.175 9.175-14.213 21.504-14.172 34.898 0.041 13.23 5.079 25.518 14.254 34.693l533.381 542.802c13.148 12.739 30.351 19.784 48.456 19.784h278.323zM942.080 960h-278.323c-27.771 0-52.838-11.1-71.27-29.082l-533.791-551.404c-31.375-31.334-31.99-83.845 0-115.835l268.984-269.189c15.892-15.933 36.864-23.757 57.836-23.757 21.176 0 42.23 7.987 57.999 23.757l550.625 525.599c19.661 19.62 29.532 45.22 29.86 70.943v287.048c0 45.22-36.7 81.92-81.92 81.92v0z" />
<glyph unicode="&#xe623;" d="M942.080 919.040c27.116 0 40.96-13.844 40.96-40.96v-286.638c-0.246-18.227 0.819-35.348-11.96-48.087l-550.707-525.722c-9.134-9.134-21.504-14.131-34.857-14.131-13.23 0-25.559 4.997-34.939 14.418l-268.739 268.943c-9.175 9.175-14.213 21.545-14.172 34.898 0.041 13.23 5.079 25.518 14.254 34.693l533.422 542.802c13.107 12.739 30.31 19.784 48.415 19.784h278.323zM942.080 960h-278.323c-27.771 0-52.838-11.1-71.27-29.082l-533.791-551.363c-31.375-31.375-31.99-83.886 0-115.876l268.984-269.189c15.892-15.933 36.864-23.757 57.836-23.757 21.176 0 42.23 7.987 57.999 23.757l550.625 525.599c19.62 19.62 29.532 45.22 29.86 70.943v287.048c0 45.22-36.7 81.92-81.92 81.92v0zM798.72 804.352c38.42 0 69.632-31.252 69.632-69.632s-31.252-69.632-69.632-69.632-69.632 31.252-69.632 69.632 31.212 69.632 69.632 69.632zM798.72 837.12c-56.566 0-102.4-45.834-102.4-102.4s45.834-102.4 102.4-102.4 102.4 45.834 102.4 102.4-45.834 102.4-102.4 102.4v0zM716.8 480.932l-33.26 33.3-165.151-57.958 57.917 165.11-33.26 33.3-57.917-173.752-43.459 43.418-28.959-28.959 59.105-59.105-29-28.959-59.105 59.105-28.959-28.959 59.105-59.105-86.876-86.876 27.771-27.812 86.917 86.876 57.917-57.917 28.959 28.959-57.917 57.958 28.959 28.959 57.917-57.958 28.959 29-43.418 43.459z" />
<glyph unicode="&#xe624;" d="M708.321 441.61l28.959 28.959-202.711 202.711-28.959-28.959 86.876-86.876c21.381-21.34 28.099-51.569 20.89-78.848l-136.724 136.765-28.959-28.959 144.957-144.671c-31.949-31.908-84.091-32.072-115.999-0.123l-86.917 86.876-28.959-28.959 14.5-246.211 43.5-43.459-14.5 246.211 43.459-43.459c47.964-48.005 125.747-48.005 173.752 0l28.959-28.959 28.959 28.959-33.997 33.997c6.963 14.623 10.895 30.31 11.756 46.162l51.159-51.159zM942.080 919.040c27.116 0 40.96-13.844 40.96-40.96v-286.638c-0.246-18.227 0.819-35.348-11.96-48.087l-550.707-525.722c-9.134-9.134-21.504-14.131-34.857-14.131-13.23 0-25.559 4.997-34.939 14.418l-268.739 268.943c-9.175 9.175-14.213 21.545-14.172 34.898 0.041 13.23 5.079 25.518 14.254 34.693l533.422 542.802c13.107 12.739 30.31 19.784 48.415 19.784h278.323zM942.080 960h-278.323c-27.771 0-52.838-11.1-71.27-29.082l-533.791-551.363c-31.375-31.375-31.99-83.886 0-115.876l268.984-269.189c15.892-15.933 36.864-23.757 57.836-23.757 21.176 0 42.23 7.987 57.999 23.757l550.625 525.599c19.62 19.62 29.532 45.22 29.86 70.943v287.048c0 45.22-36.7 81.92-81.92 81.92v0zM798.72 804.352c38.42 0 69.632-31.252 69.632-69.632s-31.252-69.632-69.632-69.632-69.632 31.252-69.632 69.632 31.212 69.632 69.632 69.632zM798.72 837.12c-56.566 0-102.4-45.834-102.4-102.4s45.834-102.4 102.4-102.4 102.4 45.834 102.4 102.4-45.834 102.4-102.4 102.4v0z" />
<glyph unicode="&#xe625;" d="M942.080 919.040c27.116 0 40.96-13.844 40.96-40.96v-286.638c-0.246-18.227 0.819-35.348-11.96-48.087l-550.707-525.722c-9.134-9.134-21.504-14.131-34.857-14.131-13.23 0-25.559 4.997-34.939 14.418l-268.739 268.943c-9.175 9.175-14.213 21.545-14.172 34.898 0.041 13.23 5.079 25.518 14.254 34.693l533.422 542.802c13.107 12.739 30.31 19.784 48.415 19.784h278.323zM942.080 960h-278.323c-27.771 0-52.838-11.1-71.27-29.082l-533.791-551.363c-31.375-31.375-31.99-83.886 0-115.876l268.984-269.189c15.892-15.933 36.864-23.757 57.836-23.757 21.176 0 42.23 7.987 57.999 23.757l550.625 525.599c19.62 19.62 29.532 45.22 29.86 70.943v287.048c0 45.22-36.7 81.92-81.92 81.92v0zM798.72 804.352c38.42 0 69.632-31.252 69.632-69.632s-31.252-69.632-69.632-69.632-69.632 31.252-69.632 69.632 31.212 69.632 69.632 69.632zM798.72 837.12c-56.566 0-102.4-45.834-102.4-102.4s45.834-102.4 102.4-102.4 102.4 45.834 102.4 102.4-45.834 102.4-102.4 102.4v0zM433.603 439.521l86.876-86.876 28.959 28.959-86.876 86.876 57.917 57.917c31.908 31.949 83.927 31.949 115.835 0 31.949-31.908 31.949-83.886 0-115.835l28.959-28.959c48.005 48.005 48.005 125.788 0 173.752-47.964 48.005-125.747 48.005-173.752 0l-57.917-57.917-57.917 57.917-28.959-28.959 57.917-57.917-57.917-57.917c-16.015-15.974-41.984-15.974-57.917 0l-28.959-28.959 202.711-202.711 28.959 28.959-144.794 144.794 86.876 86.876z" />
<glyph unicode="&#xe626;" d="M942.080 919.040c27.116 0 40.96-13.844 40.96-40.96v-286.638c-0.246-18.227 0.819-35.348-11.96-48.087l-550.707-525.722c-9.134-9.134-21.504-14.131-34.857-14.131-13.23 0-25.559 4.997-34.939 14.418l-268.739 268.943c-9.175 9.175-14.213 21.545-14.172 34.898 0.041 13.23 5.079 25.518 14.254 34.693l533.422 542.802c13.107 12.739 30.31 19.784 48.415 19.784h278.323zM942.080 960h-278.323c-27.771 0-52.838-11.1-71.27-29.082l-533.791-551.363c-31.375-31.375-31.99-83.886 0-115.876l268.984-269.189c15.892-15.933 36.864-23.757 57.836-23.757 21.176 0 42.23 7.987 57.999 23.757l550.625 525.599c19.62 19.62 29.532 45.22 29.86 70.943v287.048c0 45.22-36.7 81.92-81.92 81.92v0zM798.72 804.352c38.42 0 69.632-31.252 69.632-69.632s-31.252-69.632-69.632-69.632-69.632 31.252-69.632 69.632 31.212 69.632 69.632 69.632zM798.72 837.12c-56.566 0-102.4-45.834-102.4-102.4s45.834-102.4 102.4-102.4 102.4 45.834 102.4 102.4-45.834 102.4-102.4 102.4v0zM426.803 301.527c-42.394 42.394-48.783 108.79-21.463 166.298l93.88-93.88 28.959 28.959-100.475 100.475c4.26 5.284 8.724 10.445 13.599 15.36 4.956 4.915 10.076 9.38 15.36 13.599l100.475-100.475 29 28.959-93.88 93.921c57.426 27.279 123.822 20.931 166.298-21.504 30.351-30.351 42.189-72.991 36.536-115.835h41.165c5.571 53.289-10.281 106.373-48.701 144.794-58.368 58.368-150.364 65.126-225.731 23.020l-35.021 34.857-28.959-28.959 29.614-29.614c-5.161-4.301-10.24-8.97-15.114-13.844s-9.462-9.912-13.844-15.114l-29.614 29.614-28.959-28.959 34.939-34.98c-42.148-75.366-35.389-167.363 22.979-225.69 38.461-38.502 91.505-54.313 144.794-48.742l0.041 41.165c-42.844-5.612-85.484 6.185-115.876 36.577z" />
<glyph unicode="&#xe627;" d="M942.080 919.040c27.116 0 40.96-13.844 40.96-40.96v-286.638c-0.246-18.227 0.819-35.348-11.96-48.087l-550.707-525.722c-9.134-9.134-21.504-14.131-34.857-14.131-13.23 0-25.559 4.997-34.939 14.418l-268.739 268.943c-9.175 9.175-14.213 21.545-14.172 34.898 0.041 13.23 5.079 25.518 14.254 34.693l533.422 542.802c13.107 12.739 30.31 19.784 48.415 19.784h278.323zM942.080 960h-278.323c-27.771 0-52.838-11.1-71.27-29.082l-533.791-551.363c-31.375-31.375-31.99-83.886 0-115.876l268.984-269.189c15.892-15.933 36.864-23.757 57.836-23.757 21.176 0 42.23 7.987 57.999 23.757l550.625 525.599c19.62 19.62 29.532 45.22 29.86 70.943v287.048c0 45.22-36.7 81.92-81.92 81.92v0zM798.72 804.352c38.42 0 69.632-31.252 69.632-69.632s-31.252-69.632-69.632-69.632-69.632 31.252-69.632 69.632 31.212 69.632 69.632 69.632zM798.72 837.12c-56.566 0-102.4-45.834-102.4-102.4s45.834-102.4 102.4-102.4 102.4 45.834 102.4 102.4-45.834 102.4-102.4 102.4v0zM509.46 415.928l86.385 86.344c19.62-29.655 21.381-65.495 1.597-85.279l28.959-28.959c35.84 35.84 34.243 96.87-1.106 143.729l30.065 30.024-28.959 28.959-30.065-30.024c-46.817 35.308-107.848 36.946-143.688 1.065-35.881-35.881-34.243-96.911 1.024-143.729l-86.303-86.344c-19.661 29.614-21.422 65.495-1.638 85.279l-28.959 28.959c-35.881-35.881-34.202-96.911 1.065-143.729l-30.024-30.065 28.959-28.959 30.024 30.065c46.858-35.308 107.889-36.946 143.77-1.106 35.84 35.881 34.202 96.911-1.106 143.77zM481.608 532.828c19.743 19.784 55.665 18.022 85.279-1.597l-83.681-83.681c-19.661 29.614-21.463 65.495-1.597 85.279zM396.329 302.756l83.64 83.64c19.62-29.614 21.381-65.495 1.638-85.279-19.866-19.743-55.706-17.981-85.279 1.638z" />
<glyph unicode="&#xe628;" d="M682.667 960h-606.815c-41.036 0-75.852-33.982-75.852-75.852v-872.296c0-41.87 34.816-75.852 75.852-75.852h606.815c41.036 0 75.852 33.982 75.852 75.852v872.296c0 41.87-34.816 75.852-75.852 75.852zM720.593 11.852c0-20.897-17.484-37.926-37.926-37.926h-606.815c-20.442 0-37.926 17.029-37.926 37.926v872.296c0 20.935 17.484 37.926 37.926 37.926h606.815c20.442 0 37.926-16.991 37.926-37.926v-872.296zM75.852 87.704h606.815v796.444h-606.815v-796.444zM113.778 846.222h530.963v-720.593h-530.963v720.593zM341.333 49.778h75.852v-37.926h-75.852v37.926z" horiz-adv-x="759" />
<glyph unicode="&#xe629;" d="M1141.675 512l-180.992-180.992 24.149-24.149 139.733 139.776c-0.768-262.869-214.784-476.501-477.824-476.501-209.749 0-387.968 136.021-452.096 324.352l-32.939-9.429c68.139-202.795 259.328-349.056 485.035-349.056 282.325 0 511.232 228.523 511.915 510.72l139.861-139.861 24.149 24.149-180.992 180.992zM337.877 589.184l-139.733-139.776c0.725 262.827 214.741 476.459 477.781 476.459 209.749 0 387.968-136.064 452.096-324.352l32.939 9.429c-68.139 202.795-259.328 349.056-485.035 349.056-282.325 0-511.275-228.523-511.915-510.72l-139.904 139.904-24.107-24.192 180.992-180.992 180.992 180.992-24.107 24.192z" horiz-adv-x="1323" />
<glyph unicode="&#xe62a;" d="M1049.754 857.651v0c16.077 0 31.488-3.686 45.978-11.008 50.381-25.446 70.758-87.142 45.312-137.574-17.562-34.714-52.634-56.269-91.597-56.269-16.077 0-31.539 3.686-46.029 11.008-24.474 12.288-42.547 33.382-51.149 59.341-8.499 26.010-6.451 53.76 5.837 78.131 17.613 34.765 52.685 56.371 91.648 56.371zM1049.702 908.851c-56.115 0-110.182-30.874-137.267-84.429-38.246-75.776-7.731-168.141 67.942-206.285 22.221-11.264 45.824-16.538 69.069-16.538 56.166 0 110.234 30.874 137.267 84.429 38.195 75.674 7.782 168.090-67.891 206.285-22.221 11.264-45.824 16.538-69.12 16.538v0zM892.314 569.6v0c0 0.051 0 0.102-0.051 0.154l-0.154 0.87-0.102-0.051c-10.394 37.837-23.040 79.667-46.285 118.374-45.824 76.032-101.888 130.918-155.699 157.798l0.102 0.307-225.843 112.947-297.062-175.718c-29.030-17.254-42.65-50.637-36.045-81.971 1.69-7.987 4.813-15.872 9.216-23.245 21.709-36.454 68.864-48.486 105.318-26.778l224.307 133.734 107.213-54.118-357.12-219.648c0 0 13.619-24.115 31.846-40.397l430.029 264.602-213.965 107.93-248.525-148.070c-12.134-7.219-27.853-3.226-35.072 8.858-7.219 12.186-3.226 27.904 8.96 35.123l273.101 162.202 198.093-99.994c44.595-22.477 96.512-71.526 137.062-139.725 24.474-41.114 35.942-84.787 44.442-122.163l13.312-62.362c14.029-14.438 34.099-28.467 58.675-29.798l-25.754 121.139zM1379.686 69.376l-22.886 45.824-22.886-45.824c-0.461-0.922-45.107-88.269-130.714-88.269-84.89 0-130.304 87.398-130.714 88.269l-22.886 45.824-22.886-45.824c-0.461-0.922-45.107-88.269-130.714-88.269-84.89 0-130.304 87.398-130.714 88.269l-22.886 45.824-22.886-45.824c-0.461-0.922-45.107-88.269-130.714-88.269-84.89 0-130.304 87.398-130.714 88.269l-22.886 45.824-22.886-45.824c-0.461-0.922-45.107-88.269-130.714-88.269-84.89 0-130.304 87.398-130.714 88.269l-22.886 45.824-22.886-45.824c-0.41-0.768-36.301-70.554-105.114-85.35v-52.173c61.85 9.062 104.243 49.254 128 79.616 26.88-34.355 77.67-81.562 153.6-81.562s126.72 47.206 153.6 81.562c26.88-34.355 77.67-81.562 153.6-81.562s126.72 47.206 153.6 81.562c26.88-34.355 77.67-81.562 153.6-81.562s126.72 47.206 153.6 81.562c26.88-34.355 77.67-81.562 153.6-81.562s126.72 47.206 153.6 81.562c23.757-30.362 66.15-70.554 128-79.616v52.173c-68.301 14.899-104.755 84.634-105.114 85.35zM1379.686 274.227l-22.886 45.773-22.886-45.773c-0.461-0.922-45.107-88.269-130.714-88.269-84.89 0-130.304 87.398-130.714 88.269l-22.886 45.773-22.886-45.773c-0.461-0.922-45.107-88.269-130.714-88.269-84.89 0-130.304 87.398-130.714 88.269l-22.886 45.773-22.886-45.773c-0.461-0.922-45.107-88.269-130.714-88.269-84.89 0-130.304 87.398-130.714 88.269l-22.886 45.773-22.886-45.773c-0.461-0.922-45.107-88.269-130.714-88.269-84.89 0-130.304 87.398-130.714 88.269l-22.886 45.773-22.886-45.773c-0.41-0.819-36.301-70.605-105.114-85.35v-52.173c61.85 9.062 104.243 49.254 128 79.616 26.88-34.355 77.67-81.562 153.6-81.562s126.72 47.206 153.6 81.562c26.88-34.355 77.67-81.562 153.6-81.562s126.72 47.206 153.6 81.562c26.88-34.355 77.67-81.562 153.6-81.562s126.72 47.206 153.6 81.562c26.88-34.355 77.67-81.562 153.6-81.562s126.72 47.206 153.6 81.562c23.757-30.362 66.15-70.554 128-79.616v52.173c-68.301 14.848-104.755 84.582-105.114 85.35zM1379.686 479.027l-22.886 45.773-22.886-45.773c-0.461-0.922-45.107-88.269-130.714-88.269-84.89 0-130.304 87.398-130.714 88.269l-22.886 45.773-22.886-45.773c-0.461-0.922-45.107-88.269-130.714-88.269-84.89 0-130.304 87.398-130.714 88.269l-22.886 45.773-22.886-45.773c-0.461-0.922-45.107-88.269-130.714-88.269-84.89 0-130.304 87.398-130.714 88.269l-22.886 45.773-22.886-45.773c-0.461-0.922-45.107-88.269-130.714-88.269-84.89 0-130.304 87.398-130.714 88.269l-22.886 45.773-22.886-45.773c-0.41-0.819-36.301-70.605-105.114-85.35v-52.173c61.85 9.062 104.243 49.254 128 79.616 26.88-34.355 77.67-81.562 153.6-81.562s126.72 47.206 153.6 81.562c26.88-34.355 77.67-81.562 153.6-81.562s126.72 47.206 153.6 81.562c26.88-34.355 77.67-81.562 153.6-81.562s126.72 47.206 153.6 81.562c26.88-34.355 77.67-81.562 153.6-81.562s126.72 47.206 153.6 81.562c23.757-30.362 66.15-70.554 128-79.616v52.173c-68.301 14.848-104.755 84.582-105.114 85.35z" horiz-adv-x="1485" />
<glyph unicode="&#xe62b;" d="M1047.273 448c-7.727 0-15.267-0.465-22.807-1.164-45.382 109.94-153.46 187.345-279.738 187.345-7.913 0-15.639-0.605-23.412-1.164-45.335 109.801-152.948 187.345-279.133 187.345-167.098 0-302.545-135.447-302.545-302.545 0-124.463 75.636-230.447 183.11-276.899-26.95-32.256-43.473-73.402-43.473-118.737 0-102.819 83.363-186.182 186.182-186.182h581.818c141.359 0 256 114.641 256 256s-114.641 256-256 256zM176.873 517.818c0 146.525 118.831 265.309 265.309 265.309 107.194 0 199.308-63.721 241.199-155.229-3.258-0.698-6.516-1.257-9.775-1.955 0.093-0.14 0.186-0.279 0.279-0.465-132.841-31.93-231.703-151.226-231.703-293.841 0-8.378 0.605-16.57 1.257-24.669-30.487-3.584-58.321-15.127-82.432-31.604-1.024 0.372-6.935-4.934-9.216-6.749-101.981 37.050-174.918 134.516-174.918 249.204zM1047.273-17.455h-581.818c-82.292 0-148.945 57.344-148.945 139.636s66.7 148.945 148.945 148.945c7.494 0 14.708-1.117 21.969-2.234-4.98 20.154-8.006 41.053-8.006 62.743 0 146.525 118.831 265.309 265.309 265.309 121.204 0 223.279-81.408 254.929-192.512 15.36 3.631 31.092 6.33 47.616 6.33 120.832 0 218.764-97.932 218.764-218.764s-97.932-209.455-218.764-209.455zM418.909 960h46.545v-93.091h-46.545v93.091zM0 541.091h93.091v-46.545h-93.091v46.545zM738.42 846.918l32.917-32.912-65.857-65.867-32.917 32.912 65.857 65.867zM178.921 748.158l-65.885 65.839 32.903 32.926 65.885-65.839-32.903-32.926zM146.015 188.721l-32.912 32.917 65.834 65.825 32.912-32.917-65.834-65.825z" horiz-adv-x="1303" />
<glyph unicode="&#xe62c;" d="M1024-7.111c0-31.419-25.47-56.889-56.889-56.889s-56.889 25.47-56.889 56.889c0 31.419 25.47 56.889 56.889 56.889 31.419 0 56.889-25.47 56.889-56.889zM246.519-7.111c0-31.419-25.47-56.889-56.889-56.889s-56.889 25.47-56.889 56.889c0 31.419 25.47 56.889 56.889 56.889 31.419 0 56.889-25.47 56.889-56.889zM967.111 106.667l-113.778 113.512v0.265l-0.417 0.152-401.332 400.346c7.358-1.289 14.791-2.276 22.49-2.276 73.311 0 132.741 59.43 132.741 132.741 0 73.311-59.43 132.741-132.741 132.741-73.349 0-132.741-59.43-132.741-132.741 0-7.813 0.986-15.322 2.313-22.793l-229.869 229.3v2.086h-113.778v-37.926h106.799l82.83-82.11v-752.261h37.926v190.654c34.551-46.383 89.353-76.876 151.704-76.876h454.163l114.726-113.778 18.963 18.963zM474.074 853.807c56.434 0 102.4-45.928 102.4-102.4s-45.966-102.4-102.4-102.4-102.4 45.928-102.4 102.4 45.966 102.4 102.4 102.4zM379.259 239.407c-87.836 0-151.704 63.867-151.704 151.704v411.231l567.637-562.935h-415.934z" />
<glyph unicode="&#xe62d;" d="M379.259 903.111c41.87 0 75.852-34.020 75.852-75.852s-33.982-75.852-75.852-75.852-75.852 34.020-75.852 75.852 33.982 75.852 75.852 75.852zM379.259 941.037c-62.805 0-113.778-50.972-113.778-113.778 0-62.843 50.972-113.778 113.778-113.778 62.805 0 113.778 50.935 113.778 113.778 0 62.805-50.972 113.778-113.778 113.778v0zM508.169 284.35c-5.879-11.567-13.16-22.338-21.694-31.934l247.505-246.936c7.396-7.358 7.396-19.418 0-26.814s-19.418-7.358-26.814 0l-249.477 248.87c-11.036-7.396-23.097-13.35-35.954-17.711l258.617-258.010c22.225-22.225 60.378-20.063 80.441 0 22.225 22.225 22.225 58.254 0 80.441l-252.625 252.094zM701.63 694.519h-322.37c-62.805 0-113.778-50.972-113.778-113.778v-227.556h-151.704c-41.908 0-75.852-33.982-75.852-75.852v-284.444c0-31.403 25.486-56.889 56.889-56.889s56.889 25.486 56.889 56.889v246.519h227.556c59.202 0 107.785 45.17 113.247 102.969l0.531 0.265v238.099h208.593c31.403 0 56.889 25.448 56.889 56.889 0 31.403-25.486 56.889-56.889 56.889zM701.63 618.667h-246.519v-265.481c0-41.87-34.057-75.852-75.852-75.852h-265.481v-284.444c0-10.43-8.533-18.963-18.963-18.963s-18.963 8.533-18.963 18.963v284.444c0 20.897 17.029 37.926 37.926 37.926h189.63v265.481c0 41.794 34.057 75.852 75.852 75.852h322.37c10.43 0 18.963-8.533 18.963-18.963 0-10.468-8.533-18.963-18.963-18.963zM56.889 618.667c-10.43 0-18.963 8.495-18.963 18.963 0 10.43 8.533 18.963 18.963 18.963h191.109c8.306 14.298 18.811 27.079 31.175 37.926h-222.284c-31.403 0-56.889-25.486-56.889-56.889 0-31.441 25.486-56.889 56.889-56.889h170.667c0 13.122 1.858 25.79 4.968 37.926h-175.635z" horiz-adv-x="796" />
<glyph unicode="&#xe62e;" d="M472.615 444.377v279.316h-39.385v-279.316c-22.882-8.153-39.385-29.775-39.385-55.454s16.502-47.301 39.385-55.454v-62.7h39.385v62.7c22.882 8.153 39.385 29.775 39.385 55.454s-16.502 47.301-39.385 55.454zM792.261 716.524l27.845 27.845 27.845-27.845 41.787 41.787-83.535 83.535-41.787-41.787 27.845-27.845-27.845-27.845zM512 837.396v122.604h-118.154v-122.604c-222.169-29.026-393.846-218.466-393.846-448.473 0-250.171 202.752-452.923 452.923-452.923 250.171 0 452.923 202.752 452.923 452.923 0 230.006-171.678 419.446-393.846 448.473zM452.923-32.532c-232.724 0-421.415 188.692-421.415 421.455 0 232.684 188.692 421.376 421.415 421.376 232.724 0 421.415-188.692 421.415-421.376 0-232.763-188.692-421.455-421.415-421.455z" horiz-adv-x="906" />
<glyph unicode="&#xe62f;" d="M546.133 226.133c0-18.851-15.282-34.133-34.133-34.133s-34.133 15.282-34.133 34.133c0 18.851 15.282 34.133 34.133 34.133 18.851 0 34.133-15.282 34.133-34.133zM768 448c0-18.851-15.282-34.133-34.133-34.133s-34.133 15.282-34.133 34.133c0 18.851 15.282 34.133 34.133 34.133 18.851 0 34.133-15.282 34.133-34.133zM512 960c-282.795 0-512-229.239-512-512s229.205-512 512-512c282.795 0 512 229.239 512 512s-229.205 512-512 512zM512-29.867c-263.509 0-477.867 214.357-477.867 477.867s214.357 477.867 477.867 477.867c263.509 0 477.867-214.357 477.867-477.867s-214.357-477.867-477.867-477.867zM512 891.733c-245.077 0-443.733-198.69-443.733-443.733 0-245.077 198.656-443.733 443.733-443.733 245.077 0 443.733 198.656 443.733 443.733 0 245.043-198.656 443.733-443.733 443.733zM512 857.6c201.728 0 369.732-146.637 403.354-338.876l-287.846 30.31c-28.126 32.154-69.393 52.565-115.507 52.565-46.114 0-87.381-20.412-115.541-52.565l-287.846-30.31c33.655 192.239 201.66 338.876 403.388 338.876zM921.6 448c0-12.151-0.649-24.201-1.673-36.113l-268.595-28.297c9.079 19.627 14.268 41.404 14.268 64.41s-5.188 44.783-14.268 64.375l268.595-28.297c1.024-11.878 1.673-23.927 1.673-36.079zM631.467 448c0-65.877-53.589-119.467-119.467-119.467s-119.467 53.589-119.467 119.467 53.589 119.467 119.467 119.467c65.877 0 119.467-53.589 119.467-119.467zM372.668 383.625l-268.595 28.297c-1.024 11.878-1.673 23.927-1.673 36.079s0.649 24.201 1.673 36.113l268.595 28.297c-9.079-19.627-14.268-41.404-14.268-64.41s5.188-44.783 14.268-64.375zM108.646 377.276l287.846-30.31c4.54-5.154 9.353-10.001 14.541-14.507l30.276-287.846c-169.301 29.628-303.070 163.43-332.663 332.663zM475.887 40.073l-28.297 268.595c19.593-9.079 41.404-14.268 64.41-14.268s44.783 5.188 64.41 14.302l-28.297-268.595c-11.913-1.058-23.962-1.707-36.113-1.707s-24.201 0.649-36.113 1.673zM582.724 44.646l30.276 287.846c5.154 4.506 10.001 9.353 14.541 14.507l287.846 30.31c-29.628-169.267-163.396-303.070-332.663-332.663zM324.267 448c0-18.851-15.282-34.133-34.133-34.133s-34.133 15.282-34.133 34.133c0 18.851 15.282 34.133 34.133 34.133 18.851 0 34.133-15.282 34.133-34.133zM512 499.2c28.228 0 51.2-22.972 51.2-51.2s-22.972-51.2-51.2-51.2c-28.228 0-51.2 22.972-51.2 51.2s22.972 51.2 51.2 51.2zM512 533.333c-47.138 0-85.333-38.195-85.333-85.333s38.195-85.333 85.333-85.333c47.138 0 85.333 38.195 85.333 85.333s-38.195 85.333-85.333 85.333v0zM221.867 448c0-9.426-7.641-17.067-17.067-17.067-9.426 0-17.067 7.641-17.067 17.067 0 9.426 7.641 17.067 17.067 17.067 9.426 0 17.067-7.641 17.067-17.067zM529.067 140.8c0-9.426-7.641-17.067-17.067-17.067s-17.067 7.641-17.067 17.067c0 9.426 7.641 17.067 17.067 17.067 9.426 0 17.067-7.641 17.067-17.067zM836.267 448c0-9.426-7.641-17.067-17.067-17.067s-17.067 7.641-17.067 17.067c0 9.426 7.641 17.067 17.067 17.067 9.426 0 17.067-7.641 17.067-17.067z" />
<glyph unicode="&#xe630;" d="M93.091-64v0c50.362 0 93.091 41.705 93.091 93.091v837.818c0 51.433-42.729 93.091-93.091 93.091v0c-50.362 0-93.091-41.705-93.091-93.091v-837.818c0-51.386 42.729-93.091 93.091-93.091zM46.545 866.909c0 25.647 21.457 46.545 46.545 46.545v0c25.088 0 46.545-20.899 46.545-46.545v-837.818c0-25.693-21.457-46.545-46.545-46.545v0c-25.088 0-46.545 20.852-46.545 46.545v837.818zM372.364-64v0c50.362 0 93.091 41.705 93.091 93.091v837.818c0 51.433-42.729 93.091-93.091 93.091v0c-50.362 0-93.091-41.705-93.091-93.091v-837.818c0-51.386 42.729-93.091 93.091-93.091zM325.818 866.909c0 25.647 21.457 46.545 46.545 46.545v0c25.088 0 46.545-20.899 46.545-46.545v-837.818c0-25.693-21.457-46.545-46.545-46.545v0c-25.088 0-46.545 20.852-46.545 46.545v837.818zM1233.455 913.455c38.493 0 69.818-31.325 69.818-69.818v-791.273c0-38.493-31.325-69.818-69.818-69.818-14.010 0-26.81 4.701-44.916 16.524l-556.73 394.519c-16.989 13.498-26.717 33.233-26.717 54.412s9.728 40.913 26.717 54.412l556.265 394.752c18.804 11.543 31.93 16.291 45.382 16.291zM1233.455 960c-26.298 0-48.361-10.007-69.818-23.273l-558.545-396.195c-28.113-21.225-46.545-54.598-46.545-92.532s18.432-71.308 46.545-92.532l558.545-395.636c21.83-14.383 43.52-23.831 69.818-23.831 64.279 0 116.364 52.084 116.364 116.364v791.273c0 64.279-52.084 116.364-116.364 116.364v0z" horiz-adv-x="1350" />
<glyph unicode="&#xe631;" d="M460.8 908.8c37.615 0 68.267-30.652 68.267-68.267s-30.652-68.267-68.267-68.267-68.267 30.652-68.267 68.267 30.652 68.267 68.267 68.267zM460.8 942.933c-56.525 0-102.4-45.841-102.4-102.4s45.875-102.4 102.4-102.4c56.525 0 102.4 45.841 102.4 102.4s-45.875 102.4-102.4 102.4v0zM870.4 721.067h-819.2c-28.262 0-51.2-22.938-51.2-51.2s22.938-51.2 51.2-51.2h290.133v-259.652l-133.052-354.27c-2.116-5.803-3.482-11.708-3.482-17.545 0-20.89 13.278-40.55 34.065-48.094 26.556-9.66 55.945 4.028 65.604 30.618l138.172 375.876h37.342l137.421-375.91c9.66-26.556 39.014-40.277 65.604-30.618 20.787 7.578 33.792 27.238 33.792 48.128 0 5.837-1.092 11.742-3.209 17.545l-133.325 356.966v256.956h290.133c28.262 0 51.2 22.938 51.2 51.2s-22.938 51.2-51.2 51.2zM870.4 652.8h-324.267v-299.008l135.407-360.721c3.209-8.875-1.331-18.671-10.206-21.914-8.875-3.209-18.671 1.365-21.879 10.206l-146.193 398.37h-83.866l-146.978-398.37c-3.209-8.841-13.005-13.38-21.879-10.206-8.875 3.243-13.38 13.039-10.206 21.914l135.134 357.854v301.875h-324.267c-9.387 0-17.067 7.68-17.067 17.067s7.68 17.067 17.067 17.067h819.2c9.387 0 17.067-7.68 17.067-17.067s-7.68-17.067-17.067-17.067z" horiz-adv-x="922" />
<glyph unicode="&#xe632;" d="M512 927.232c264.233 0 479.232-214.999 479.232-479.232s-214.999-479.232-479.232-479.232-479.232 214.999-479.232 479.232 214.999 479.232 479.232 479.232zM512 960c-282.788 0-512-229.212-512-512s229.212-512 512-512 512 229.212 512 512-229.212 512-512 512v0zM519.619 182.292l151.265 560.906-39.567 10.732-138.936-515.195-88.678 250.757-96.584-34.12 13.681-38.666 57.917 20.48 90.153-254.894z" />
<glyph unicode="&#xe633;" d="M512 927.232c264.233 0 479.232-214.999 479.232-479.232s-214.999-479.232-479.232-479.232-479.232 214.999-479.232 479.232 214.999 479.232 479.232 479.232zM512 960c-282.788 0-512-229.212-512-512s229.212-512 512-512 512 229.212 512 512-229.212 512-512 512v0zM450.56 673.28h-81.92v-450.56h81.92v-40.96h-122.88v532.48h122.88v-40.96zM573.44 714.24h122.88v-532.48h-122.88v40.96h81.92v450.56h-81.92v40.96z" />
<glyph unicode="&#xe634;" d="M1024 919.040c45.179 0 81.92-36.782 81.92-81.92s-36.741-81.92-81.92-81.92c-45.22 0-81.92 36.782-81.92 81.92s36.7 81.92 81.92 81.92zM1024 960c-67.83 0-122.88-55.050-122.88-122.88 0-67.871 55.050-122.88 122.88-122.88 67.83 0 122.88 55.009 122.88 122.88 0 67.83-55.050 122.88-122.88 122.88v0zM569.016 822.866l142.049-32.236 33.997 34.202-189.235 43.049-195.502-195.543c-23.962-23.962-24.003-62.915 0.041-86.876 24.003-24.003 62.915-24.003 86.876 0l147.538 147.866 47.964-10.772 34.202 34.324-95.232 21.381-163.389-163.84c-7.987-7.946-21.012-7.946-28.959 0.041-7.987 7.946-7.987 20.972 0 28.918l179.651 179.487zM356.639 263.68h57.917l36.004 36.004v57.917zM1126.4 427.52h-143.36v204.8c-15.606 27.443-52.060 74.138-77.742 99.86-36.864 36.864-77.292 63.939-115.466 79.503l-260.383-260.178c-9.83-9.544-18.309-20.439-25.027-33.874-9.953-19.948-13.558-41.288-12.288-62.013h-0.328l-0.246-232.899h-266.281c-4.137 0-8.151-0.41-12.042-1.188-3.031-0.655-5.939-1.638-8.765-2.662-0.778-0.287-1.597-0.41-2.335-0.696-3.482-1.434-6.799-3.236-9.994-5.284v0c-3.113-2.007-5.939-4.26-8.561-6.717-0.164-0.082-0.287-0.164-0.41-0.287l-0.082-0.082c-6.308-5.98-11.346-13.189-14.705-21.381-0.287-0.737-0.41-1.597-0.696-2.335-1.024-2.867-2.007-5.734-2.662-8.724-0.778-3.932-1.188-7.905-1.188-12.083 0-4.71 0.655-9.298 1.638-13.681 0.041-0.246 0.164-0.492 0.205-0.737 1.024-4.219 2.54-8.233 4.383-12.124v0 0c9.912-20.562 30.802-34.898 55.214-34.898h307.2c45.22 0 81.92 36.7 81.92 81.92v105.759l245.76 246.784v-147.743c0-45.22 36.659-81.92 81.92-81.92h184.32c33.915 0 61.44 27.525 61.44 61.44s-27.525 61.44-61.44 61.44zM1126.4 345.6h-184.32c-22.61 0-40.96 18.35-40.96 40.96v188.867l0.123 0.123-28.959 28.959-298.844-299.868v-122.88c0-22.61-18.35-40.96-40.96-40.96h-307.2c-11.264 0-20.48 9.216-20.48 20.48s9.216 20.48 20.48 20.48h307.2v272.957c0 11.837 0 32.072 8.561 44.728 5.775 8.479 11.633 15.729 17.859 22.61l239.739 239.739c25.6-13.844 52.47-33.382 77.66-58.573 27.075-27.075 51.855-64.102 65.782-91.382v-225.28h184.32c11.264 0 20.48-9.216 20.48-20.48s-9.216-20.48-20.48-20.48zM168.878 75.919l-92.979-92.979c-7.946-7.987-20.972-7.987-28.959 0s-7.987 20.972 0 28.959l93.061 92.856c-8.233 12.452-13.517 26.829-15.688 42.271l-106.332-106.168c-24.003-24.003-24.003-62.874 0-86.876s62.874-24.003 86.876 0l106.332 106.332c-15.442 2.171-29.819 7.373-42.312 15.606zM299.295 263.68l151.757 151.429v58.204l-209.92-209.633z" horiz-adv-x="1188" />
<glyph unicode="&#xe635;" d="M641.339 762.486l-0.236 0.591h-188.18c-38.754 0-73.098-18.786-94.602-47.616l-0.079 0.079-96.098-149.386h-143.99c-32.61 0-59.077-26.466-59.077-59.077 0-32.65 26.466-59.077 59.077-59.077h208.581l50.176 78.769h253.243v-413.538c0-32.61 26.466-59.077 59.077-59.077s59.077 26.466 59.077 59.077v531.692c0 61.479-46.946 111.931-106.969 117.563zM708.923 113.231c0-10.831-8.862-19.692-19.692-19.692s-19.692 8.862-19.692 19.692v452.923h-314.25l-50.137-78.769h-186.998c-10.831 0-19.692 8.822-19.692 19.692 0 10.831 8.862 19.692 19.692 19.692h165.376l104.527 163.289c14.297 20.401 38.124 33.634 64.866 33.634h177.231c43.441 0 78.769-35.367 78.769-78.769v-531.692zM590.769 283.687l-126.306 126.306c-15.399 15.399-15.399 40.33 0 55.69l21.662 21.701h-54.587c-25.246-30.956-23.749-76.367 5.081-105.236l153.167-153.167c0.315-0.315 0.709-0.473 0.985-0.788v55.493zM590.769 395.067l-42.772 42.772 49.546 49.546h-55.729l-49.506-49.546 98.462-98.462zM236.308 369.231c108.583 0 196.923-88.34 196.923-196.923s-88.34-196.923-196.923-196.923-196.923 88.34-196.923 196.923 88.34 196.923 196.923 196.923zM236.308 408.615c-130.481 0-236.308-105.826-236.308-236.308s105.826-236.308 236.308-236.308 236.308 105.826 236.308 236.308-105.787 236.308-236.308 236.308v0zM1024 369.231c108.583 0 196.923-88.34 196.923-196.923s-88.34-196.923-196.923-196.923-196.923 88.34-196.923 196.923 88.34 196.923 196.923 196.923zM1024 408.615c-130.481 0-236.308-105.826-236.308-236.308s105.826-236.308 236.308-236.308 236.308 105.826 236.308 236.308-105.826 236.308-236.308 236.308v0zM256 960c-87.001 0-157.538-70.538-157.538-157.538h39.385c0-65.26 52.933-118.154 118.154-118.154s118.154 52.894 118.154 118.154h104.409c-32.492 91.727-119.729 157.538-222.562 157.538zM256 723.692c-43.402 0-78.769 35.525-78.769 78.966h157.538c0-43.441-35.367-78.966-78.769-78.966zM144.738 841.846c16.266 45.804 59.943 78.769 111.262 78.769 64.236 0 121.265-30.996 157.223-78.769h-268.485z" horiz-adv-x="1260" />
<glyph unicode="&#xe636;" d="M613.248 458.155l-237.312 177.323c-7.595 5.845-18.432 6.101-26.24 0-9.429-7.253-11.179-20.736-3.925-30.165l177.621-237.013c0.811-1.067 2.005-1.92 2.901-2.901 11.733-14.592 29.483-24.064 49.664-24.064 35.328 0 64 28.587 64 64 0 18.731-8.235 35.499-21.077 47.189-1.621 1.877-3.115 3.797-5.632 5.632zM576 917.333c-294.528 0-533.333-238.848-533.333-533.333 0-154.752 66.347-293.675 171.605-391.083l24.277 24.235c-0.171 0.171-0.299 0.341-0.469 0.512l63.317 63.317-24.064 24.192-63.189-63.147c-80.043 84.565-130.901 196.565-136.235 320.64h92.757v42.667h-92.8c5.205 121.899 54.144 232.491 131.797 316.587l67.669-67.669 24.107 24.149-67.84 67.84c84.608 80.085 196.992 130.603 321.067 135.851v-92.757h42.667v92.757c124.075-5.248 236.459-55.765 321.067-135.851l-67.84-67.84 24.107-24.149 67.669 67.669c77.653-84.096 126.592-194.645 131.797-316.587h-92.8v-42.667h92.757c-5.333-124.075-56.107-236.075-136.235-320.683l-63.147 63.147-24.107-24.149 63.317-63.317c-0.171-0.171-0.299-0.341-0.469-0.512l24.277-24.235c105.259 97.408 171.605 236.331 171.605 391.083 0 294.485-238.805 533.333-533.333 533.333z" horiz-adv-x="1152" />
<glyph unicode="&#xe637;" d="M1022.601 743.151c-1.058 4.335-3.209 8.397-6.554 11.81-4.915 4.949-11.435 7.407-17.886 7.407-6.485 0-12.971-2.458-17.886-7.407-3.379-3.413-107.486-107.52-107.486-107.52-7.885-7.851-18.944-11.605-31.812-11.605-27.511 0-63.215 17.101-93.594 47.479-44.544 44.544-60.553 100.659-35.806 125.406 0 0 104.107 104.141 107.452 107.52 9.899 9.865 9.899 25.941 0 35.806-3.379 3.413-7.475 5.53-11.776 6.588-10.103 0.887-20.173 1.365-30.276 1.365-78.473 0-157.047-27.921-209.169-80.077-47.070-47.070-56.593-111.138-56.593-162.338v0c0-51.2-18.876-124.45-72.158-180.019l0.137-0.171-405.606-405.606c-44.783-44.749-44.783-117.385 0-162.202 22.426-22.391 51.78-33.587 81.135-33.587 29.321 0 58.709 11.196 81.101 33.587l405.743 405.402c49.732 47.684 109.807 73.284 161.929 73.284 6.178 0 20.207-0.273 52.292-0.273 45.636 0 89.634 17.067 128.171 55.671 58.846 58.812 86.835 151.381 78.643 239.479zM518.656 702.805c-0.478 1.877-0.853 3.721-1.297 5.632 0.444-1.911 0.853-3.789 1.297-5.632zM523.503 686.285c-0.444 1.263-0.887 2.458-1.263 3.721 0.375-1.263 0.819-2.458 1.263-3.721zM602.214 412.058l-1.297 1.195-424.38-424.311c-16.486-16.521-38.468-25.6-61.815-25.6-23.347 0-45.295 9.079-61.815 25.6-16.486 16.452-25.6 38.434-25.6 61.781 0 23.347 9.114 45.261 25.6 61.815l423.731 424.038-0.99 1.092c30.515 37.137 50.825 78.609 59.324 119.467 17.442-37.547 44.1-74.342 78.029-108.271 36.659-36.659 111.172-79.462 108.066-77.995-40.892-8.533-82.057-28.672-118.852-58.812zM924.672 522.923c-31.607-31.607-68.233-47.616-108.885-47.616-58.47 0-123.631 32.973-183.467 92.877-81.613 81.647-136.329 201.318-45.193 292.454 45.090 45.090 116.053 72.021 189.85 72.021 6.417 0 12.902-0.205 19.285-0.614l-104.038-104.038c-19.046-19.012-24.508-48.947-15.053-82.125 7.987-28.058 26.078-57.173 50.825-81.92 34.748-34.748 76.937-55.467 112.913-55.467 20.617 0 38.298 6.793 51.132 19.627 0 0 85.47 85.504 104.038 104.073 5.188-80.111-21.811-159.607-71.407-209.271zM152.815 51.985c0-18.851-15.282-34.133-34.133-34.133s-34.133 15.282-34.133 34.133c0 18.851 15.282 34.133 34.133 34.133 18.851 0 34.133-15.282 34.133-34.133z" />
<glyph unicode="&#xe638;" d="M1291.13 737.391h-89.043c-16.117 0-31.299-4.764-44.522-12.6v146.165c0 49.197-40.871 89.043-89.043 89.043h-311.652c-26.401 0-50.31-12.199-66.783-31.121-16.473 18.922-40.381 31.121-66.783 31.121h-311.652c-48.173 0-89.043-39.891-89.043-89.043v-146.165c-13.223 7.836-28.405 12.6-44.522 12.6h-89.043c-48.173 0-89.043-39.891-89.043-89.043v-445.217c0-32.679 18.254-60.95 44.522-76.444v-190.687h133.565l89.043 178.087h845.913l89.043-178.087h133.565v190.687c26.268 15.494 44.522 43.72 44.522 76.444v445.217c0 49.152-40.871 89.043-89.043 89.043zM267.13 425.739c0 24.576 20.525 44.522 44.522 44.522h756.87c23.997 0 44.522-19.946 44.522-44.522v-133.565h-845.913v133.565zM756.87 915.478h311.652c23.997 0 44.522-19.946 44.522-44.522v-368.774c-13.223 7.836-28.405 12.6-44.522 12.6h-356.174v356.174c0 24.576 20.525 44.522 44.522 44.522zM267.13 870.957c0 24.576 20.525 44.522 44.522 44.522h311.652c23.997 0 44.522-19.946 44.522-44.522v-356.174h-356.174c-16.117 0-31.299-4.764-44.522-12.6v368.774zM155.826-19.478h-66.783v133.565h133.565l-66.783-133.565zM1291.13-19.478h-66.783l-66.783 133.565h133.565v-133.565zM1335.652 203.13c0-24.576-20.525-44.522-44.522-44.522h-1202.087c-23.997 0-44.522 19.946-44.522 44.522v445.217c0 24.576 20.525 44.522 44.522 44.522h89.043c23.997 0 44.522-19.946 44.522-44.522v-400.696h934.957v400.696c0 24.576 20.525 44.522 44.522 44.522h89.043c23.997 0 44.522-19.946 44.522-44.522v-445.217z" horiz-adv-x="1380" />
<glyph unicode="&#xe639;" d="M1335.652 546.705v324.252c0 49.197-40.871 89.043-89.043 89.043h-1113.043c-48.173 0-89.043-39.891-89.043-89.043v-324.252c-26.268-15.494-44.522-43.765-44.522-76.444v-133.565c0-32.679 18.254-60.95 44.522-76.444v-324.252h133.565l89.043 178.087h845.913l89.043-178.087h133.565v324.252c26.268 15.494 44.522 43.72 44.522 76.444v133.565c0 32.679-18.254 60.95-44.522 76.444zM89.043 870.957c0 24.576 20.525 44.522 44.522 44.522h1113.043c23.997 0 44.522-19.946 44.522-44.522v-311.652h-1202.087v311.652zM155.826-19.478h-66.783v133.565h133.565l-66.783-133.565zM1291.13-19.478h-66.783l-66.783 133.565h133.565v-133.565zM1291.13 158.609h-1202.087v89.043h1202.087v-89.043zM1335.652 336.696c0-24.576-20.525-44.522-44.522-44.522h-1202.087c-23.997 0-44.522 19.946-44.522 44.522v133.565c0 24.576 20.525 44.522 44.522 44.522h1202.087c23.997 0 44.522-19.946 44.522-44.522v-133.565z" horiz-adv-x="1380" />
<glyph unicode="&#xe63a;" d="M600.276 924.69c38.947 0 70.621-31.709 70.621-70.621 0-38.947-31.673-70.621-70.621-70.621s-70.621 31.673-70.621 70.621c0 38.912 31.709 70.621 70.621 70.621zM600.276 960c-58.474 0-105.931-47.457-105.931-105.931 0-58.509 47.457-105.931 105.931-105.931 58.474 0 105.931 47.422 105.931 105.931 0 58.474-47.457 105.931-105.931 105.931v0zM494.345 24.276c0-48.753-39.522-88.276-88.276-88.276-48.753 0-88.276 39.522-88.276 88.276 0 48.753 39.522 88.276 88.276 88.276 48.753 0 88.276-39.522 88.276-88.276zM829.793 571.586h-127.082l-112.922 116.136c-24.011 25.529-49.929 44.809-80.119 67.761-55.649 42.231-106.214 60.769-145.655 62.888l0.106 0.388h-311.155c-29.237 0-52.966-23.729-52.966-52.966 0-29.272 23.729-52.966 52.966-52.966h273.161l-263.91-412.284c-15.713-24.682-8.474-57.415 16.207-73.128 24.682-15.713 57.415-8.439 73.092 16.207l98.41 141.983 30.791-20.233-218.5-347.454c-15.713-24.682-8.474-57.415 16.207-73.128s57.415-8.439 73.092 16.207l393.746 619.908 112.393-115.253h172.138c29.237 0 52.966 23.693 52.966 52.966 0 29.237-23.729 52.966-52.966 52.966zM239.934 433.17l-118.184-170.549c-5.191-8.192-16.172-10.664-24.364-5.402-8.192 5.191-10.628 16.172-5.367 24.364l286.473 447.594-29.767 18.962h-295.759c-9.71 0-17.655 7.91-17.655 17.655 0 9.71 7.945 17.655 17.655 17.655h317.793c34.216 0 79.801-25.318 119.455-55.437 25-19.032 44.42-32.839 65.465-55.508l132.908-136.227h141.241c9.71 0 17.655-7.945 17.655-17.655 0-9.746-7.945-17.655-17.655-17.655h-157.59l-131.284 135.168-422.877-658.609c-5.226-8.227-16.137-10.664-24.364-5.402-8.192 5.191-10.664 16.172-5.402 24.364l240.922 379.763-89.3 56.92z" horiz-adv-x="883" />
<glyph unicode="&#xe63b;" d="M512 610.734l-162.734-119.071 59.515-186.532h206.397l59.556 186.532zM890.88 104.509c82.493 90.89 133.12 211.149 133.12 343.491 0 9.748-0.942 19.251-1.434 28.836l0.573 0.696c-0.164 3.154-0.819 6.185-1.065 9.339-0.942 12.575-2.458 24.904-4.301 37.233-0.901 6.308-1.72 12.698-2.867 18.964-2.54 13.681-5.898 26.993-9.544 40.264-1.229 4.506-2.13 9.175-3.482 13.64-5.366 17.654-11.551 34.898-18.719 51.651-1.024 2.458-2.376 4.71-3.441 7.168-6.308 14.172-13.107 28.058-20.644 41.492-0.737 1.229-1.188 2.621-1.925 3.85l-0.492 0.082c-68.813 120.586-185.139 210.207-323.584 243.794l-0.287 0.655c-2.376 0.573-4.874 0.778-7.291 1.311-12.739 2.867-25.805 5.079-38.912 7.004-5.693 0.819-11.223 1.966-16.998 2.58-18.964 2.13-38.093 3.441-57.59 3.441-19.497 0-38.625-1.311-57.549-3.441-5.734-0.655-11.305-1.761-16.957-2.58-13.148-1.925-26.214-4.137-38.994-7.004-2.417-0.573-4.915-0.778-7.25-1.352l-0.287-0.614c-138.486-33.587-254.812-123.208-323.625-243.794l-0.451-0.082c-0.696-1.229-1.229-2.54-1.884-3.768-7.537-13.476-14.377-27.402-20.726-41.656-1.065-2.376-2.376-4.628-3.4-7.086-7.127-16.712-13.312-33.956-18.678-51.528-1.393-4.669-2.376-9.503-3.686-14.295-3.564-12.984-6.799-26.132-9.298-39.526-1.188-6.431-2.007-12.984-2.949-19.538-1.843-12.165-3.359-24.412-4.26-36.823-0.246-3.154-0.901-6.185-1.065-9.38l0.573-0.696c-0.614-9.585-1.516-19.087-1.516-28.836 0-132.383 50.627-252.641 133.079-343.532l-0.041-0.778c1.966-2.171 4.26-3.973 6.267-6.062 11.059-11.796 22.733-23.020 34.939-33.751 2.867-2.54 5.652-5.325 8.602-7.823 15.278-12.82 31.334-24.74 48.046-35.758 3.604-2.376 7.414-4.465 11.059-6.717 13.64-8.479 27.607-16.343 42.025-23.511 5.079-2.54 10.158-4.997 15.319-7.373 15.729-7.209 31.785-13.64 48.333-19.251 2.376-0.819 4.465-1.966 6.84-2.703l0.246 0.123c49.562-16.015 102.359-24.863 157.286-24.863s107.684 8.847 157.286 24.822l0.246-0.123c2.417 0.778 4.588 1.966 7.004 2.785 16.425 5.571 32.44 11.96 48.046 19.128 5.284 2.417 10.404 4.915 15.565 7.496 14.336 7.168 28.18 14.909 41.697 23.306 3.809 2.376 7.7 4.465 11.387 6.922 16.63 10.936 32.645 22.856 47.841 35.594 3.113 2.662 5.98 5.53 9.052 8.192 12.001 10.609 23.511 21.709 34.488 33.341 2.048 2.171 4.383 4.014 6.39 6.185l-0.123 0.86zM398.090-8.54l-100.393 138.977-158.761 55.583-1.638-22.282c-56.771 74.588-91.628 166.42-95.437 266.322l25.6-29.655 95.232 134.922v178.586l-43.008-5.734c59.146 88.924 147.579 156.713 251.535 189.358l-21.955-52.634 162.734-43.663 162.734 43.663-21.914 52.634c103.916-32.645 192.348-100.434 251.535-189.358l-43.049 5.775v-178.586l95.232-134.922 25.6 29.655c-3.809-99.86-38.666-191.734-95.437-266.322l-1.597 22.323-158.761-55.583-100.393-138.977c-36.577-9.175-74.588-14.582-113.951-14.582s-77.373 5.407-113.91 14.5z" />
<glyph unicode="&#xe63c;" d="M891.563 730.169l-170.97-98.607v157.772l-37.926-18.963v-160.692l-189.63-109.492v223.232l132.741 76.572v35.006l-132.741-76.535v201.538h-37.926v-201.538l-132.741 76.724v-35.044l132.741-76.724v-223.422l-189.63 109.682v160.768l-37.926 18.887v-157.772l-170.97 98.607-18.66-33.033 174.232-100.58-140.591-81.161 30.303-17.56 140.629 81.199 193.65-111.768-194.522-112.337-140.136 80.934-30.303-17.56 140.060-80.896-173.321-100.087 18.66-33.033 170.97 98.835v-158.53l37.926 18.66v161.754l189.63 109.492v-225.015l-132.741-76.724v-35.006l132.741 76.724v-200.552h37.926v200.552l132.741-76.535v35.006l-132.741 76.535v224.825l189.63-109.303v-161.451l37.926-18.963v158.53l170.97-98.835 18.66 33.033-173.321 100.087 140.060 80.896-30.303 17.56-140.136-80.934-194.522 112.337 193.65 111.768 140.591-81.199 30.341 17.56-140.591 81.161 174.232 100.58z" horiz-adv-x="948" />
<glyph unicode="&#xe63d;" d="M948.148 711.016v-38.571l132.020-23.931-87.874-485.111-44.146 8.002v-38.571l74.676-13.502 101.452 559.787zM1151.317 828.359l-203.169 36.826v-38.571l196.418-35.575c20.101-3.641 34.285-23.514 30.568-44.108l-128.493-709.025c-3.755-20.556-23.969-34.209-44.070-30.568l-54.424 9.899v-38.571l47.635-8.647c40.353-7.282 80.706 19.873 88.14 61.137l128.531 709.025c7.433 41.263-20.745 80.858-61.137 88.178zM265.481 788.613l-77.71-14.601 6.789-37.319 70.921 12.857zM948.148 788.689v-39.14l70.921-12.857 6.789 37.319zM265.481 711.016v-38.571l-132.020-23.931 87.874-485.111 44.146 8.002v-38.571l-74.676-13.502-101.49 559.787zM62.312 828.359l203.169 36.826v-38.571l-196.418-35.575c-20.101-3.641-34.285-23.514-30.568-44.108l128.493-709.025c3.755-20.556 23.969-34.209 44.070-30.568l54.424 9.899v-38.571l-47.635-8.647c-40.353-7.282-80.706 19.911-88.14 61.175l-128.531 709.025c-7.433 41.225 20.745 80.82 61.137 88.14zM568.889 49.778h75.852v-37.926h-75.852v37.926zM493.037 884.148h37.926v-37.926h-37.926v37.926zM568.889 884.148h151.704v-37.926h-151.704v37.926zM872.296 277.333v-265.481c0-20.897-17.484-37.926-37.926-37.926h-455.111c-20.442 0-37.926 17.029-37.926 37.926v265.481l-37.926 18.167v-283.648c0-41.87 34.816-75.852 75.852-75.852h455.111c41.036 0 75.852 33.982 75.852 75.852v284.444l-37.926-18.963zM341.333 585.216v298.932c0 20.935 17.484 37.926 37.926 37.926h455.111c20.442 0 37.926-16.991 37.926-37.926v-298.932c12.933-1.403 25.6-2.882 37.926-4.475v303.407c0 41.908-34.816 75.852-75.852 75.852h-455.111c-41.036 0-75.852-33.982-75.852-75.852v-303.407c12.326 1.593 24.993 3.072 37.926 4.475zM796.444 372.148v-246.519h-379.259v246.519h-37.926v-284.444h455.111v284.444zM417.185 504.889v265.481h379.259v-265.481h37.926v303.407h-455.111v-303.407zM898.276 537.126l-29.317-24.083 54.651-66.484c-87.154 12.743-197.101 20.404-316.795 20.404-119.694 0-229.641-7.661-316.833-20.404l54.651 66.484-29.279 24.083-96.332-117.191 117.191-96.332 24.083 29.279-67.546 55.561c78.052 11.757 182.955 20.594 314.065 20.594s236.013-8.837 314.065-20.594l-67.546-55.561 24.083-29.317 117.191 96.332-96.332 117.229z" horiz-adv-x="1214" />
<glyph unicode="&#xe63e;" d="M678.583 623.982l139.41-139.41h-525.422v-36.571h525.495l-139.447-139.447 20.663-20.699 178.432 178.432-178.432 178.432zM256 45.714h73.143v-36.571h-73.143v36.571zM182.857 886.857h36.571v-36.571h-36.571v36.571zM256 886.857h146.286v-36.571h-146.286v36.571zM475.429 411.429v-292.571h-365.714v658.286h365.714v-256h36.571v292.571h-438.857v-731.429h438.857v329.143zM548.571 411.429v-402.286c0-20.151-16.859-36.571-36.571-36.571h-438.857c-19.712 0-36.571 16.421-36.571 36.571v877.714c0 20.187 16.859 36.571 36.571 36.571h438.857c19.712 0 36.571-16.384 36.571-36.571v-365.714h36.571v365.714c0 40.411-33.573 73.143-73.143 73.143h-438.857c-39.57 0-73.143-32.768-73.143-73.143v-877.714c0-40.375 33.573-73.143 73.143-73.143h438.857c39.57 0 73.143 32.768 73.143 73.143v402.286h-36.571z" horiz-adv-x="878" />
<glyph unicode="&#xe63f;" d="M381.989 308.59l-139.41 139.41h561.993v36.571h-562.066l139.447 139.483-20.663 20.663-178.432-178.432 178.432-178.432zM256 45.714h73.143v-36.571h-73.143v36.571zM182.857 886.857h36.571v-36.571h-36.571v36.571zM256 886.857h146.286v-36.571h-146.286v36.571zM475.429 411.429v-292.571h-365.714v658.286h365.714v-256h36.571v292.571h-438.857v-731.429h438.857v329.143zM548.571 411.429v-402.286c0-20.151-16.859-36.571-36.571-36.571h-438.857c-19.712 0-36.571 16.421-36.571 36.571v877.714c0 20.187 16.859 36.571 36.571 36.571h438.857c19.712 0 36.571-16.384 36.571-36.571v-365.714h36.571v365.714c0 40.411-33.573 73.143-73.143 73.143h-438.857c-39.57 0-73.143-32.768-73.143-73.143v-877.714c0-40.375 33.573-73.143 73.143-73.143h438.857c39.57 0 73.143 32.768 73.143 73.143v402.286h-36.571z" horiz-adv-x="805" />
<glyph unicode="&#xe640;" d="M417.185 49.778h75.852v-37.926h-75.852v37.926zM341.333 884.148h37.926v-37.926h-37.926v37.926zM417.185 884.148h151.704v-37.926h-151.704v37.926zM396.895 453.044l61.478-61.478h-3.262c-257.669 0-398.222 75.169-398.222 113.778 0 14.298 19.418 33.678 56.889 52.338v42.022c-59.316-25.941-94.815-58.709-94.815-94.36 0-83.778 195.243-151.704 436.148-151.704h3.262l-61.478-61.478 26.814-26.814 107.255 107.255-107.255 107.255-26.814-26.814zM796.444 599.704v-42.022c37.471-18.66 56.889-38.040 56.889-52.338 0-32.465-99.631-90.643-284.444-108.316v-38.116c185.647 17.408 322.37 76.383 322.37 146.432 0 35.65-35.537 68.418-94.815 94.36zM644.741 330.316v-204.686h-379.259v204.724c-12.895 2.086-25.562 4.361-37.926 6.865v-249.515h455.111v249.515c-12.516-2.541-25.183-4.817-37.926-6.903zM265.481 770.37h379.259v-324.646c13.464 2.503 26.131 5.158 37.926 7.964v354.607h-455.111v-354.569c11.833-2.844 24.424-5.613 37.926-8.116v324.76zM720.593 345.828v-333.976c0-20.897-17.484-37.926-37.926-37.926h-455.111c-20.442 0-37.926 17.029-37.926 37.926v333.976c-13.084 3.3-25.714 6.903-37.926 10.695v-344.671c0-41.87 34.816-75.852 75.852-75.852h455.111c41.036 0 75.852 33.982 75.852 75.852v344.595c-12.288-3.868-24.955-7.358-37.926-10.619zM189.63 884.148c0 20.935 17.484 37.926 37.926 37.926h455.111c20.442 0 37.926-16.991 37.926-37.926v-420.143c14.26 4.399 26.965 8.951 37.926 13.426v406.718c0 41.908-34.816 75.852-75.852 75.852h-455.111c-41.036 0-75.852-33.982-75.852-75.852v-406.452c11.036-4.513 23.704-9.064 37.926-13.502v419.954z" horiz-adv-x="910" />
<glyph unicode="&#xe641;" d="M165.161 893.935h33.032v-33.032h-33.032v33.032zM231.226 893.935h132.129v-33.032h-132.129v33.032zM1024 2.065v396.387c0 35.741-29.597 66.065-66.065 66.065h-759.742c-36.501 0-66.065-30.324-66.065-66.065v-396.387c0-35.741 29.564-66.065 66.065-66.065h759.742c36.468 0 66.065 30.324 66.065 66.065zM198.194-30.968c-18.201 0-33.032 15.228-33.032 33.032v396.387c0 17.804 14.831 33.032 33.032 33.032h759.742c18.234 0 33.032-15.228 33.032-33.032v-396.387c0-17.804-14.798-33.032-33.032-33.032h-759.742zM264.258 398.452v-396.387h627.613v396.387h-627.613zM858.839 365.419v-330.323h-561.548v330.323h561.548zM198.194 233.29h33.032v-66.065h-33.032v66.065zM924.903 299.355h33.032v-33.032h-33.032v33.032zM924.903 233.29h33.032v-132.129h-33.032v132.129zM99.097 101.161h-33.032c-17.804 0-33.032 14.831-33.032 33.032v759.742c0 18.234 15.228 33.032 33.032 33.032h396.387c17.804 0 33.032-14.798 33.032-33.032v-396.387h33.032v396.387c0 36.501-30.324 66.065-66.065 66.065h-396.387c-35.741 0-66.065-29.597-66.065-66.065v-759.742c0-36.468 30.324-66.065 66.065-66.065h33.032v33.032zM99.097 233.29v561.548h330.323v-297.29h33.032v330.323h-396.387v-627.613h33.032zM961.635 622.906l-43.305-57.344c-27.549 145.606-141.94 260.327-287.348 288.471l56.849 41.389-19.423 26.723-106.859-77.758 77.725-106.826 26.723 19.423-47.864 65.8c136.39-23.651 244.241-131.171 268.453-267.363l-63.719 48.128-19.951-26.36 105.472-79.641 79.608 105.406-26.36 19.951z" />
<glyph unicode="&#xe642;" d="M568.889 49.778h75.852v-37.926h-75.852v37.926zM493.037 884.148h37.926v-37.926h-37.926v37.926zM568.889 884.148h151.704v-37.926h-151.704v37.926zM1136.792 616.77c-102.438 103.652-268.516 103.652-370.991 0l-344.443-348.615c-87.647-88.747-230.324-88.747-318.009 0-87.685 88.709-87.685 233.093 0 321.801 87.647 88.709 230.324 88.709 318.009 0l84.006-85.068h-50.252v-37.926h113.778v113.778h-37.926v-48.128l-83.096 84.158c-102.476 103.652-268.553 103.652-370.991 0-102.476-103.689-102.476-271.777 0-375.429 102.438-103.689 268.516-103.689 370.991 0l344.443 348.615c87.685 88.709 230.324 88.709 318.009 0 87.685-88.747 87.685-233.131 0-321.801-87.685-88.747-230.324-88.747-318.009 0l-132.627 134.22-26.51-26.814 132.627-134.22c102.476-103.689 268.553-103.689 370.991 0 102.476 103.652 102.476 271.739 0 375.429zM379.259 576.91v-295.708l37.926 36.712v224.901zM834.37 281.202v295.746c-5.234-4.248-10.278-8.761-15.095-13.615l-22.831-23.135v-222.246l22.831-23.097c4.817-4.93 9.861-9.444 15.095-13.653zM796.444 169.358v-43.729h-379.259v43.729c-12.212-7.471-24.804-14.26-37.926-19.873v-61.781h455.111v61.781c-13.122 5.613-25.714 12.402-37.926 19.873zM417.185 688.716v81.655h379.259v-81.655c12.212 7.471 24.804 14.26 37.926 19.873v99.707h-455.111v-99.707c13.122-5.613 25.714-12.402 37.926-19.873zM341.333 600.69c-12.098 5.765-24.804 10.202-37.926 13.16v-369.626c13.122 2.958 25.828 7.396 37.926 13.16v343.305zM910.222 613.85c-13.122-2.958-25.828-7.396-37.926-13.16v-343.343c12.098-5.727 24.804-10.202 37.926-13.16v369.664zM341.333 721.56v162.588c0 20.935 17.484 37.926 37.926 37.926h455.111c20.442 0 37.926-16.991 37.926-37.926v-162.588c12.402 3.413 25.069 5.954 37.926 7.737v154.852c0 41.908-34.816 75.852-75.852 75.852h-455.111c-41.036 0-75.852-33.982-75.852-75.852v-154.852c12.857-1.783 25.524-4.324 37.926-7.737zM872.296 136.476v-124.625c0-20.897-17.484-37.926-37.926-37.926h-455.111c-20.442 0-37.926 17.029-37.926 37.926v124.625c-12.402-3.375-25.069-5.954-37.926-7.699v-116.926c0-41.87 34.816-75.852 75.852-75.852h455.111c41.036 0 75.852 33.982 75.852 75.852v116.926c-12.857 1.745-25.524 4.324-37.926 7.699z" horiz-adv-x="1214" />
<glyph unicode="&#xe643;" d="M400 864c35.264 0 64-28.736 64-64s-28.736-64-64-64-64 28.736-64 64 28.736 64 64 64zM400 896c-52.992 0-96-42.976-96-96s43.008-96 96-96c52.992 0 96 42.976 96 96s-43.008 96-96 96v0zM668.128 317.248v0c7.392 17.472 4.064 38.432-10.176 52.672l-81.952 81.952v140.128c0 52.992-78.816 96-176 96s-176-43.008-176-96v-140.128l-81.952-81.952c-14.816-14.816-17.632-36.768-8.992-54.624l-69.056-68.672 22.624-22.624 69.152 68.8c17.792-8.352 39.456-5.44 54.144 9.248l78.080 78.048v-396.096c0-26.496 21.504-48 48-48s48 21.504 48 48v320h32v-320c0-26.496 21.504-48 48-48s48 21.504 48 48v396.096l78.080-78.016c15.232-15.264 38.144-17.888 56.288-8.288l67.040-67.040 22.592 22.624-67.872 67.872zM635.328 324.672c-6.24-6.24-16.416-6.24-22.624 0l-100.704 100.704v150.624h-32v-592c0-8.8-7.2-16-16-16s-16 7.2-16 16v352h-96v-352c0-8.8-7.2-16-16-16s-16 7.2-16 16v592h-32v-150.624l-100.704-100.672c-6.208-6.24-16.384-6.24-22.624 0-6.24 6.24-6.24 16.384 0 22.624l91.328 91.296v153.376c0 30.272 63.328 64 144 64s144-33.728 144-64v-153.376l91.328-91.328c6.24-6.24 6.24-16.352 0-22.624zM768 496c0-69.76-14.304-135.552-39.424-193.92l24.224-24.224c29.984 65.056 47.2 139.2 47.2 218.144 0 256.256-179.104 464-400 464s-400-207.744-400-464c0-79.68 17.536-154.56 48.064-220.064l24.16 24.192c-25.664 58.816-40.224 125.376-40.224 195.872 0 238.176 165.056 432 368 432s368-193.824 368-432z" horiz-adv-x="800" />
<glyph unicode="&#xe644;" d="M320 928c35.296 0 64-28.736 64-64s-28.704-64-64-64c-35.328 0-64 28.736-64 64s28.672 64 64 64zM320 960c-52.992 0-96-43.008-96-96 0-53.024 43.008-96 96-96 52.992 0 96 42.976 96 96 0 52.992-43.008 96-96 96v0zM70.496-31.136c-17.184-4.128-34.496 6.528-38.624 23.68l-31.872-7.36c8.224-34.368 43.552-55.616 77.92-47.424l946.080 222.24-8.256 31.2-945.248-222.336zM677.28 521.216c1.152 12.544-0.992 24.416-5.248 35.328l-31.296-7.488c3.648-7.488 5.504-15.968 4.672-24.896-1.312-13.856-8.448-25.664-18.688-33.536l-203.328-168.768 98.848-178.144c4.544-7.552 2.080-17.408-5.472-21.92-7.552-4.576-17.44-2.080-21.952 5.504l-101.12 182.112c-3.008 4.416-4.608 9.76-4.096 15.36 0.608 6.816 4.16 12.672 9.152 16.544l-0.032 0.064 146.72 122.048-32.768 55.072-32.64-7.776 24-40.096-126.688-105.44c-10.816-9.088-18.176-22.272-19.552-37.44-1.12-11.904 1.696-23.232 7.264-32.832l-0.16 0.096 102.528-184.224c8.288-13.824 22.368-21.952 37.28-23.2 9.664-0.8 19.584 1.376 28.608 6.752 22.688 13.632 30.048 43.136 16.448 65.856l-85.696 154.016 181.984 151.008c17.152 13.088 29.088 32.832 31.232 56zM908.128 645.952l-8.256 31.168-49.536-11.872-7.52 28.544-30.944-8.128 7.392-27.872-412.928-98.944 16.352 47.552 5.6-9.376 32.992 7.936-46.048 77.408-13.952-40.224 0.032-0.064-44.288-128.288-165.504-39.84c-8.576-2.048-17.248 3.232-19.296 11.808-2.048 8.576 3.232 17.248 11.776 19.296l151.136 36.416 67.968 189.504c10.208 27.2 43.904 39.488 74.4 36.704 28.32-2.592 51.936-19.136 65.088-42.048l47.904-89.696 32.416 7.744-52.992 98.688c-18.24 31.264-50.688 53.632-89.504 57.184-41.088 3.776-93.056-17.184-107.2-56l-62.496-175.040-134.24-32.32c-25.76-6.208-41.632-32.128-35.392-57.888 6.208-25.76 32.16-41.632 57.92-35.424l182.432 43.904 12.512 36.16 433.504 103.648 8.896-33.76 30.944 8.128-8.704 33.088 49.536 11.904z" />
<glyph unicode="&#xe645;" d="M693.677-30.968c0-18.243-14.789-33.032-33.032-33.032s-33.032 14.789-33.032 33.032c0 18.243 14.789 33.032 33.032 33.032 18.243 0 33.032-14.789 33.032-33.032zM363.355-30.968c0-18.243-14.789-33.032-33.032-33.032s-33.032 14.789-33.032 33.032c0 18.243 14.789 33.032 33.032 33.032 18.243 0 33.032-14.789 33.032-33.032zM297.29 35.097c-18.201 0-33.032 14.798-33.032 33.032h-33.032c0-36.468 29.564-66.065 66.065-66.065h429.419v33.032h-429.419zM726.71 926.968c36.435 0 66.065-29.663 66.065-66.065s-29.63-66.065-66.065-66.065c-36.468 0-66.065 29.663-66.065 66.065s29.597 66.065 66.065 66.065zM726.71 960c-54.701 0-99.097-44.395-99.097-99.097 0-54.734 44.395-99.097 99.097-99.097 54.701 0 99.097 44.362 99.097 99.097 0 54.701-44.395 99.097-99.097 99.097v0zM908.387 596.645h-130.147l-69.103 104.25-18.894-31.348 70.59-105.934h147.555c9.084 0 16.516-7.432 16.516-16.516s-7.432-16.516-16.516-16.516h-165.359l-70.194 109.997-19.027-31.612 71.151-111.418h183.428c27.351 0 49.548 22.198 49.548 49.548s-22.198 49.548-49.548 49.548zM688.458 728.774c-17.111 18.894-39.077 37.624-63.95 53.248-48.458 30.522-96.718 45.816-135.564 45.651l-163.179 0.198-119.841-188.053c-14.666-23.090-7.895-53.71 15.195-68.41 23.057-14.699 53.71-7.895 68.41 15.162l90.376 142.204h77.362l-65.503-105.604c-11.66-19.423-16.979-43.933-16.979-67.419 0-21.471 6.904-40.498 18.531-56.716l130.345-205.89-94.935-148.81c-14.699-23.090-7.928-53.743 15.162-68.41 23.090-14.699 53.71-7.895 68.41 15.162l129.189 201.794-110.823 174.047 157.795 261.847zM484.418 108.792c-4.856-7.663-15.129-9.976-22.792-5.054s-9.943 15.129-5.021 22.825l106.694 167.507-146.003 228.98c-5.88 9.877-9.48 20.414-9.48 32.702 0 16.285 3.039 35.543 11.429 49.152l97.148 156.903h-154.657l-100.055-157.531c-4.889-7.663-15.129-9.943-22.792-5.054-7.697 4.889-9.976 15.129-5.054 22.825l110.163 172.792h143.228c32.273 0 76.338-13.147 119.544-40.663 14.831-9.414 28.11-19.918 39.87-30.687l-155.219-256.826 110.526-173.353-117.529-184.518zM371.877 471.123l-88.13-138.735h-234.199c-9.084 0-16.516 7.432-16.516 16.516s7.432 16.516 16.516 16.516h215.668l86.974 140.354c-6.21 14.633-9.745 30.092-10.207 46.278l-95.199-153.6h-197.236c-27.351 0-49.548-22.198-49.548-49.548s22.198-49.548 49.548-49.548h251.871l89.914 141.015-19.456 30.753z" horiz-adv-x="958" />
<glyph unicode="&#xe646;" d="M901.12 632.32l122.88 122.88-122.88 122.88h-327.68v81.92h-122.88v-81.92h-327.68v-245.76h327.68v-81.92h-327.68l-122.88-122.88 122.88-122.88h327.68v-368.64h122.88v368.64h327.68v245.76h-327.68v81.92h327.68zM491.52 919.040h40.96v-40.96h-40.96v40.96zM163.84 673.28v163.84h720.323l81.92-81.92-81.92-81.92h-720.323zM532.48-23.040h-40.96v327.68h40.96v-327.68zM860.16 509.44v-163.84h-720.323l-81.92 81.92 81.92 81.92h720.323zM532.48 550.4h-40.96v81.92h40.96v-81.92z" />
<glyph unicode="&#xe647;" d="M787.692 881.231h-275.692v78.769h-118.154v-78.769h-393.846v-393.846h393.846v-512h118.154v512h275.692l196.923 196.923-196.923 196.923zM433.231 920.615h39.385v-39.385h-39.385v39.385zM472.615 14.769h-39.385v472.615h39.385v-472.615zM771.387 526.769h-732.002v315.077h732.002l157.538-157.538-157.538-157.538z" horiz-adv-x="985" />
<glyph unicode="&#xe648;" d="M400.696 781.913h178.087v-44.522h-178.087v44.522zM845.913 870.957h-712.348v-222.609h712.348v222.609zM801.391 692.87h-623.304v133.565h623.304v-133.565zM979.478 960h-979.478v-44.522h44.522v-979.478h133.565v623.304h623.304v-623.304h133.565v979.478h44.522v44.522zM133.565-19.478h-44.522v578.783h44.522v-578.783zM890.435-19.478h-44.522v578.783h44.522v-578.783zM890.435 603.826h-801.391v311.652h801.391v-311.652z" horiz-adv-x="979" />
<glyph unicode="&#xe649;" d="M606.815 580.741v-417.185h-455.111v417.185h455.111zM644.741 618.667h-530.963v-493.037h530.963v493.037zM606.815 846.222v-151.704h-455.111v151.704h455.111zM644.741 884.148h-530.963v-227.556h530.963v227.556zM303.407 808.296h151.704v-37.926h-151.704v37.926zM758.519 960h-758.519v-37.926h37.926v-986.074h37.926v113.778h606.815v-113.778h37.926v986.074h37.926v37.926zM682.667 87.704h-606.815v834.37h606.815v-834.37zM530.963 429.037h37.926v-113.778h-37.926v113.778z" horiz-adv-x="759" />
<glyph unicode="&#xe64a;" d="M1047.273 913.455l-33.792-33.745 104.029-105.891h-235.706c-154.717 0-249.344-195.072-340.899-311.017-88.343-111.988-171.892-294.074-303.523-294.074h-237.382v-46.545h234.636c154.81 0 242.921 195.072 334.476 311.017 88.343 111.988 171.334 294.074 303.057 294.074h244.922l-103.564-105.891 33.745-33.745 162.909 162.909-162.909 162.909zM1013.527 274.618l103.564-105.891h-244.922c-111.523 0-188.090 131.91-262.749 238.918-0.977-1.303-23.273-34.537-23.273-34.537 78.010-110.918 167.191-250.927 295.331-250.927h235.613l-103.61-105.891 33.792-33.745 162.909 162.909-162.909 162.909-33.745-33.745zM500.457 488.355c0.977 1.303 24.623 34.537 24.623 34.537-78.057 110.918-169.007 250.927-297.007 250.927h-228.073v-46.545h237.382c111.523 0 188.416-131.91 263.075-238.918z" horiz-adv-x="1210" />
<glyph unicode="&#xe64b;" d="M872.296 656.593h-113.778v151.704l-151.704 151.704h-417.185v-303.407h-113.778c-41.036 0-75.852-33.982-75.852-75.852v-341.333c0-41.87 34.816-75.852 75.852-75.852h113.171c-5.992-127.241-71.263-227.556-151.097-227.556h170.667v0.493c22.263 19.342 41.529 45.397 56.889 76.117v-76.61h493.037v227.556h113.778c41.036 0 75.852 33.982 75.852 75.852v341.333c0 41.87-34.816 75.852-75.852 75.852zM606.815 906.373l98.076-98.076h-98.076v98.076zM227.556 922.074h341.333v-151.704h151.704v-189.63h-493.037v341.333zM194.37-26.074h-28.179c34.626 47.9 57.192 114.65 60.53 189.63h0.834v189.63h37.926v-170.667c0-87.95-28.444-164.978-71.111-208.593zM303.407-26.074v379.259h37.926v-379.259h-37.926zM379.259-26.074v379.259h37.926v-379.259h-37.926zM455.111-26.074v379.259h37.926v-379.259h-37.926zM530.963-26.074v379.259h37.926v-379.259h-37.926zM606.815-26.074v379.259h37.926v-379.259h-37.926zM682.667-26.074v379.259h37.926v-379.259h-37.926zM910.222 239.407c0-20.897-17.484-37.926-37.926-37.926h-113.778v189.63h-568.889v-189.63h-113.778c-20.442 0-37.926 17.029-37.926 37.926v341.333c0 20.935 17.484 37.926 37.926 37.926h113.778v-75.852h568.889v75.852h113.778c20.442 0 37.926-16.991 37.926-37.926v-341.333z" horiz-adv-x="948" />
<glyph unicode="&#xe64c;" d="M1113.043 2.783c0-36.883-29.9-66.783-66.783-66.783-36.883 0-66.783 29.9-66.783 66.783 0 36.883 29.9 66.783 66.783 66.783 36.883 0 66.783-29.9 66.783-66.783zM267.13 2.783c0-36.883-29.9-66.783-66.783-66.783s-66.783 29.9-66.783 66.783c0 36.883 29.9 66.783 66.783 66.783 36.883 0 66.783-29.9 66.783-66.783zM171.898 870.957l-30.675 89.043h-141.223v-44.522h111.304l197.231-569.656c-86.639-30.141-163.929-94.074-174.525-187.214v-44.522h979.033v44.522h-932.374c12.511 84.413 93.54 135.346 175.505 155.826l756.87 89.043v467.478h-941.145zM1068.522 442.791l-712.348-83.834c-2.404-0.49-4.719-1.113-7.123-1.647l-161.792 469.126h881.263v-383.644z" horiz-adv-x="1113" />
<glyph unicode="&#xe64d;" d="M853.333-12.8c0-28.277-22.923-51.2-51.2-51.2s-51.2 22.923-51.2 51.2c0 28.277 22.923 51.2 51.2 51.2 28.277 0 51.2-22.923 51.2-51.2zM204.8-12.8c0-28.277-22.923-51.2-51.2-51.2-28.277 0-51.2 22.923-51.2 51.2 0 28.277 22.923 51.2 51.2 51.2 28.277 0 51.2-22.923 51.2-51.2zM381.85 774.144l130.15 130.116v-490.394h34.133v490.462l130.15-130.15 19.319 19.285-166.537 166.537-166.537-166.537zM273.067 226.133l580.267 68.267v358.4h-238.933v-34.133h204.8v-294.127l-546.133-64.273c-1.843-0.375-3.618-0.853-5.461-1.263l-124.041 359.663h300.169v34.133h-311.945l-23.518 68.267h-108.271v-34.133h85.333l151.211-436.736c-66.423-23.108-125.679-72.124-133.803-143.531l-0.341-34.133h750.933v34.133h-714.82c9.591 64.717 71.714 103.765 134.554 119.467z" horiz-adv-x="853" />
<glyph unicode="&#xe64e;" d="M914.286-9.143c0-30.297-24.56-54.857-54.857-54.857s-54.857 24.56-54.857 54.857c0 30.297 24.56 54.857 54.857 54.857 30.297 0 54.857-24.56 54.857-54.857zM219.429-9.143c0-30.297-24.56-54.857-54.857-54.857s-54.857 24.56-54.857 54.857c0 30.297 24.56 54.857 54.857 54.857 30.297 0 54.857-24.56 54.857-54.857zM724.553 573.989l-139.41-139.41v525.422h-36.571v-525.495l-139.483 139.447-20.663-20.663 178.432-178.432 178.432 178.432zM292.571 246.857l621.714 73.143v384h-256v-36.571h219.429v-315.136l-585.143-68.864c-1.975-0.402-3.877-0.914-5.851-1.353l-132.901 385.353h321.609v36.571h-334.226l-25.198 73.143h-116.005v-36.571h91.429l162.011-467.931c-71.168-24.759-134.656-77.275-143.36-153.783l-0.366-36.571h804.571v36.571h-765.879c10.277 69.339 76.837 111.177 144.165 128z" horiz-adv-x="914" />
</font>
</defs>
</svg>
